На всех торрентах на трекере установлена скидка на скачивание в размере 100 процентов(а).
 Возможность скачивания торрента НЕ зависит от ограничений при низком ратио, низком аплоаде, требуемом ратио или требуемом аплоаде.


Начать новую тему Ответить на тему
Статистика раздачи
Размер: 2.21 ГБ | Добавлен: 02 сен 2014, 15:48 | Скачали: 486
Сидеров: 58  [0 байт/сек]    Личеров: 22  [0 байт/сек]
Пред. тема | След. тема 

Автор
Сообщение

СообщениеДобавлено: 02 сен 2014, 15:48 

Название: Крепкий сон
Оригинальное название: Mientras duermes
Год выпуска: 2011
Жанр: Триллер, драма
Выпущено: Испания, Filmax Entertainment
Режиссер: Жауме Балагуэро

В ролях: Луис Тосар, Марта Этура, Альберто Сан Хуан, Петра Мартинес, Пеп Тосар, Карлос Ласарте, Ирис Альмейда, Манель Дуэсо, Ориол Хенис

О фильме: Главный герой — Сесар, работающий консьержем в небольшом жилом доме, в Барселоне. Кажется, что он маленький незаметный человек, который лишь открывает и закрывает двери, но на самом деле он тот, кто замечает и знает про жителей многоквартирного дома абсолютно всё. Он глубоко несчастлив и ищет хоть какую-нибудь причину для дальнейшего своего существования. День за днём он выполняет свою работу и, пока на него никто из жителей дома не обращает особого внимания, неустанно наблюдает за ними. Он знает каждую мелочь в их жизни, всё о них, а в особенности про одну из них…

Качество: BDRip

Продолжительность: 01:40:56

Видео: XviD, 1574 Кбит/с, 720x304
Аудио 1: русский, 48 kHz, AC3, 6 ch, 448 kbps avg, [Авторский, Юрий Немахов]
Аудио 2: русский, 48 kHz, AC3, 6 ch, 448 kbps avg, [Любительский многоголосый, GalVid-Group]
Аудио 3: русский, 48 kHz, AC3, 2 ch, 192 kbps avg, [Любительский одноголосый, Samurai48]

Внешние файлы
Аудио: испанский, 48 kHz, AC3, 6 ch, 448 kbps avg, [Оригинал]
Субтитры: русские
Субтитры: английские

Исходник: gogamel74 (Кинозал)



Гойя, 2012 год
Номинации (1):
Лучшая мужская роль (Луис Тосар)
Общее
Полное имя : D:VideoKrepkij son.2011.BDRipKrepkij son.2011.BDRip.avi
Формат : AVI
Формат/Информация : Audio Video Interleave
Размер файла : 1,89 Гбайт
Продолжительность : 1 ч. 40 м.
Общий поток : 2680 Кбит/сек
Программа кодирования : VirtualDubMod 1.5.10.2 (build 2540/release)
Библиотека кодирования : VirtualDubMod build 2540/release

Видео
Идентификатор : 0
Формат : MPEG-4 Visual
Профиль формата : Advanced Simple@L5
Параметр BVOP формата : 1
Параметр QPel формата : Нет
Параметр GMC формата : Без точки перехода
Параметр матрицы формата : Default (H.263)
Режим смешивания : Сжатый битовый поток
Идентификатор кодека : XVID
Идентификатор кодека/Подсказка : XviD
Продолжительность : 1 ч. 40 м.
Битрейт : 1574 Кбит/сек
Ширина : 720 пикселей
Высота : 304 пикселя
Соотношение сторон : 2,35:1
Частота кадров : 24,000 кадра/сек
Цветовое пространство : YUV
Субдискретизация насыщенности : 4:2:0
Битовая глубина : 8 бит
Тип развёртки : Прогрессивная
Метод сжатия : С потерями
Бит/(Пиксели*Кадры) : 0.300
Размер потока : 1,11 Гбайт (59%)
Библиотека кодирования : XviD 1.2.1 (UTC 2008-12-04)

Аудио #1
Идентификатор : 1
Формат : AC-3
Формат/Информация : Audio Coding 3
Расширение режима : CM (complete main)
Параметр Endianness формата : Big
Идентификатор кодека : 2000
Продолжительность : 1 ч. 40 м.
Вид битрейта : Постоянный
Битрейт : 448 Кбит/сек
Каналы : 6 каналов
Расположение каналов : Front: L C R, Side: L R, LFE
Частота : 48,0 КГц
Битовая глубина : 16 бит
Метод сжатия : С потерями
Размер потока : 323 Мбайт (17%)
Выравнивание : Разделение по промежуткам
Продолжительность промежутка : 42 мс. (1,00 видеокадр)
Время предзагрузки промежутка : 500 мс.

Аудио #2
Идентификатор : 2
Формат : AC-3
Формат/Информация : Audio Coding 3
Расширение режима : CM (complete main)
Параметр Endianness формата : Big
Идентификатор кодека : 2000
Продолжительность : 1 ч. 40 м.
Вид битрейта : Постоянный
Битрейт : 448 Кбит/сек
Каналы : 6 каналов
Расположение каналов : Front: L C R, Side: L R, LFE
Частота : 48,0 КГц
Битовая глубина : 16 бит
Метод сжатия : С потерями
Размер потока : 323 Мбайт (17%)
Выравнивание : Разделение по промежуткам
Продолжительность промежутка : 42 мс. (1,00 видеокадр)
Время предзагрузки промежутка : 500 мс.

Аудио #3
Идентификатор : 3
Формат : AC-3
Формат/Информация : Audio Coding 3
Расширение режима : CM (complete main)
Параметр Endianness формата : Big
Идентификатор кодека : 2000
Продолжительность : 1 ч. 40 м.
Вид битрейта : Постоянный
Битрейт : 192 Кбит/сек
Каналы : 2 канала
Расположение каналов : Front: L R
Частота : 48,0 КГц
Битовая глубина : 16 бит
Метод сжатия : С потерями
Размер потока : 138 Мбайт (7%)
Выравнивание : Разделение по промежуткам
Продолжительность промежутка : 42 мс. (1,00 видеокадр)
Время предзагрузки промежутка : 500 мс.

Общее
Полное имя : D:VideoKrepkij son.2011.BDRipKrepkij son.2011.eng.srt
Формат : SubRip
Размер файла : 59,3 Кбайт

Текст
Формат : SubRip
Метод сжатия : Без потерь

Общее
Полное имя : D:VideoKrepkij son.2011.BDRipKrepkij son.2011.Original.spa.ac3
Формат : AC-3
Формат/Информация : Audio Coding 3
Размер файла : 323 Мбайт
Продолжительность : 1 ч. 40 м.
Режим общего битрейта : Постоянный
Общий поток : 448 Кбит/сек

Аудио
Формат : AC-3
Формат/Информация : Audio Coding 3
Расширение режима : CM (complete main)
Параметр Endianness формата : Big
Продолжительность : 1 ч. 40 м.
Вид битрейта : Постоянный
Битрейт : 448 Кбит/сек
Каналы : 6 каналов
Расположение каналов : Front: L C R, Side: L R, LFE
Частота : 48,0 КГц
Битовая глубина : 16 бит
Метод сжатия : С потерями
Размер потока : 323 Мбайт (100%)

Общее
Полное имя : D:VideoKrepkij son.2011.BDRipKrepkij son.2011.rus.srt
Размер файла : 59,9 Кбайт

загрузка...
Правила, инструкции, FAQ!!!
Торрент  Добавлен [02 сен 2014, 15:48] Скачать торрент
Скачать торрент
[ Размер 11.73 КБ / Просмотров 8 ]

Статус
Проверен 
 
Размер  2.21 ГБ
Приватный: Нет (DHT включён)
.torrent скачан  486
Как залить торрент? | Как скачать Torrent? | Как смотреть и слушать онлайн?  


     Отправить личное сообщение
   
Страница 1 из 1
Показать сообщения за:  Поле сортировки  
Начать новую тему Ответить на тему

   Похожие торренты   Автор   Ответы   Просмотры   Последнее сообщение 
В этой теме нет новых непрочитанных сообщений. Скачать торрент Проверен Крепкий сон / Mientras duermes (2011) BDRip 720p by | A, L, L1

в форуме 720p | 1080p, Размер: 4.3 ГБ, Здоровье: 100%

Anonymous

0
18|12

28
22

02 сен 2014, 15:46

Anonymous Перейти к последнему сообщению

В этой теме нет новых непрочитанных сообщений. Скачать торрент Крепкий орешек: Квадрология / Die Hard: Quadrilogy (1988-2007) BDRip 1080p

в форуме Квадралогии, Размер: 46.02 ГБ, Здоровье: 100%

Anonymous

0
10|4

283
40

18 дек 2013, 08:36

Anonymous Перейти к последнему сообщению

В этой теме нет новых непрочитанных сообщений. Скачать торрент Проверен Крепкий орешек 2 / Die Hard 2 (Ренни Харлин) [1990, США, боевик, триллер, криминал, BDRip SD (480p)] DUB, MVO, Original + SUB (rus, eng)

в форуме Фильмы для iPod, iPhone, iPad, Размер: 1.9 ГБ, Здоровье: 100%

Гость

0
16|5

41
0

14 май 2015, 00:00

Гость Перейти к последнему сообщению

В этой теме нет новых непрочитанных сообщений. Скачать торрент Проверен Крепкий орешек 4.0 / Live Free or Die Hard (Лен Уайзман) [2007, США, Великобритания, боевик, триллер, криминал, BDRip SD (480p)] DUB (rus, ukr), MVO, AVO, Original + SUB (rus, ukr, eng)

в форуме Фильмы для iPod, iPhone, iPad, Размер: 2.46 ГБ, Здоровье: 100%

Гость

0
50|16

46
0

11 май 2015, 01:26

Гость Перейти к последнему сообщению

В этой теме нет новых непрочитанных сообщений. Скачать торрент Крепкий орешек 4.0 (Die Hard 4.0: Live Free or Die Hard) (2007) [MP4|640x272] <BDRip>

в форуме Видео для смартфонов и КПК, Размер: 826.99 МБ, Здоровье: ???%

Anonymous

0
0|1

61
1

21 апр 2014, 22:27

Anonymous Перейти к последнему сообщению



Сейчас этот форум просматривают: нет зарегистрированных пользователей и гости: 1


Вы не можете начинать темы
Вы не можете отвечать на сообщения
Вы не можете редактировать свои сообщения
Вы не можете удалять свои сообщения
Вы не можете добавлять вложения

Перейти:  

!ВНИМАНИЕ!
 Ресурс не предоставляет электронные версии произведений, а занимается лишь коллекционированием и каталогизацией ссылок, присылаемых и публикуемых на форуме нашими читателями. Если вы являетесь правообладателем какого-либо представленного материала и не желаете чтобы ссылка на него находилась в нашем каталоге, свяжитесь с нами и мы незамедлительно удалим её. Файлы для обмена на трекере предоставлены пользователями сайта, и администрация не несёт ответственности за их содержание. Просьба не заливать файлы, защищенные авторскими правами, а также файлы нелегального содержания!