На всех торрентах на трекере установлена скидка на скачивание в размере 100 процентов(а).
 Возможность скачивания торрента НЕ зависит от ограничений при низком ратио, низком аплоаде, требуемом ратио или требуемом аплоаде.


Начать новую тему Ответить на тему
Статистика раздачи
Размер: 1.72 ГБ | Добавлен: 05 июл 2014, 23:13 | Скачали: 0
Сидеров: 0  [0 байт/сек]    Личеров: 0  [0 байт/сек]
Пред. тема | След. тема 

Автор
Сообщение

СообщениеДобавлено: 05 июл 2014, 23:13 

Название: Срок
Оригинальное название: Livstid
Год выпуска: 2012
Жанр: Триллер, драма
Выпущено: Швеция, Yellow Bird Films, Degeto Film, TV4 Nordisk Television
Режиссер: Юльф Квенслер

В ролях: Малин Крепин, Бьёрн Чьелльман, Лейф Андре, Кайса Эрнст, Эрик Йоханссон, Феликс Энгстрем, Кандиду Ричард Ульфзэтер, Моа Гаммель, Жозефин Борнебуш, Мария Кулле

О фильме: Дэвид Линдхольм, самый известный полицейский Швеции, обнаружен застреленным в собственной постели. Теперь его жене Джулии грозит пожизненное заключение за убийство, а его четырехлетний сын пропал. Однако, Анника уверена, что полицейского убила совсем другая женщина.




Качество: HDRip (AVC)
Видео: MPEG-4 AVC, 2200 Кбит/с, 1024x576, 25 кадр/с
Аудио: Русский (AC3, 2 ch, 192 Кбит/с), шведский (AC3, 6 ch, 384 Кбит/с)
Продолжительность: 01:28:31
Перевод: Профессиональный многоголосый

General
Unique ID : 254350657404761784824343894153764769849 (0xBF5A279D8088233697F87061B85B9039)
Complete name : C:Livstid.2012.HDRip.AVC.ExKinoRay.mkv
Format : Matroska
Format version : Version 2
File size : 1.72 GiB
Duration : 1h 28mn
Overall bit rate : 2 776 Kbps
Movie name : Livstid 2012 from ExkinoRay
Encoded date : UTC 2014-07-05 19:19:32
Writing application : mkvmerge v4.9.1 ('Ich will') built on Jul 11 2011 23:53:15
Writing library : libebml v1.2.1 + libmatroska v1.1.1

Video
ID : 1
Format : AVC
Format/Info : Advanced Video Codec
Format profile : High@L4.1
Format settings, CABAC : Yes
Format settings, ReFrames : 9 frames
Codec ID : V_MPEG4/ISO/AVC
Duration : 1h 28mn
Bit rate : 2 200 Kbps
Width : 1 024 pixels
Height : 576 pixels
Display aspect ratio : 16:9
Frame rate mode : Constant
Frame rate : 25.000 fps
Color space : YUV
Chroma subsampling : 4:2:0
Bit depth : 8 bits
Scan type : Progressive
Bits/(Pixel*Frame) : 0.149
Stream size : 1.33 GiB (77%)
Title : Enigma-Vladislav71
Writing library : x264 core 116 r2044 392e762
Encoding settings : cabac=1 / ref=9 / deblock=1:-2:-2 / analyse=0x3:0x113 / me=umh / subme=10 / psy=1 / psy_rd=1.00:0.20 / mixed_ref=1 / me_range=32 / chroma_me=1 / trellis=2 / 8x8dct=1 / cqm=0 / deadzone=21,11 / fast_pskip=0 / chroma_qp_offset=-3 / threads=12 / sliced_threads=0 / nr=0 / decimate=0 / interlaced=0 / bluray_compat=0 / constrained_intra=0 / bframes=8 / b_pyramid=2 / b_adapt=2 / b_bias=0 / direct=3 / weightb=1 / open_gop=0 / weightp=2 / keyint=250 / keyint_min=25 / scenecut=40 / intra_refresh=0 / rc=2pass / mbtree=0 / bitrate=2200 / ratetol=1.0 / qcomp=0.60 / qpmin=0 / qpmax=69 / qpstep=4 / cplxblur=20.0 / qblur=0.5 / ip_ratio=1.40 / pb_ratio=1.30 / aq=1:1.00
Default : Yes
Forced : No

Audio #1
ID : 2
Format : AC-3
Format/Info : Audio Coding 3
Mode extension : CM (complete main)
Format settings, Endianness : Big
Codec ID : A_AC3
Duration : 1h 28mn
Bit rate mode : Constant
Bit rate : 192 Kbps
Channel(s) : 2 channels
Channel positions : Front: L R
Sampling rate : 48.0 KHz
Bit depth : 16 bits
Compression mode : Lossy
Stream size : 122 MiB (7%)
Language : Russian
Default : No
Forced : No

Audio #2
ID : 3
Format : AC-3
Format/Info : Audio Coding 3
Mode extension : CM (complete main)
Format settings, Endianness : Big
Codec ID : A_AC3
Duration : 1h 28mn
Bit rate mode : Constant
Bit rate : 384 Kbps
Channel(s) : 6 channels
Channel positions : Front: L C R, Side: L R, LFE
Sampling rate : 48.0 KHz
Bit depth : 16 bits
Compression mode : Lossy
Stream size : 243 MiB (14%)
Language : Swedish
Default : No
Forced : No






Релиз от:

Авторы релиза:
загрузка...
Правила, инструкции, FAQ!!!
Торрент  Добавлен [05 июл 2014, 23:13] Скачать торрент
Скачать торрент
[ Размер 17.78 КБ / Просмотров 5 ]

Статус
Проверен 
 
Размер  1.72 ГБ
Приватный: Нет (DHT включён)
.torrent скачан  0
Как залить торрент? | Как скачать Torrent? | Как смотреть и слушать онлайн?  


     Отправить личное сообщение
   
Страница 1 из 1
Показать сообщения за:  Поле сортировки  
Начать новую тему Ответить на тему

   Похожие торренты   Автор   Ответы   Просмотры   Последнее сообщение 
В этой теме нет новых непрочитанных сообщений. Скачать торрент Срок / Livstid (2012) HDRip

в форуме Драмы, Мелодрамы, Размер: 1.36 ГБ, Здоровье: 0%

Anonymous

0
0|0

18
0

14 дек 2013, 19:36

Anonymous Перейти к последнему сообщению

В этой теме нет новых непрочитанных сообщений. Скачать торрент Короткий срок 12 / Short Term 12 (2013) HDRip | L1

в форуме Драмы, Мелодрамы, Размер: 1.37 ГБ, Здоровье: 0%

Anonymous

0
0|0

40
0

06 фев 2014, 22:19

Anonymous Перейти к последнему сообщению

В этой теме нет новых непрочитанных сообщений. Скачать торрент Проверен Кирилл Казанцев | Срок за любовь (2014) [FB2]

в форуме Детективы и Боевики, Размер: 859.91 КБ, Здоровье: 100%

Гость

0
2|1

48
1

21 июн 2015, 00:59

Гость Перейти к последнему сообщению

В этой теме нет новых непрочитанных сообщений. Скачать торрент Проверен (Шансон) группа Срок - Сборник - 2011, MP3, 256-320 kbps

в форуме Шансон|Авторская песня, Размер: 42.25 МБ, Здоровье: 0%

Anonymous

0
0|0

0
0

05 ноя 2016, 16:46

Anonymous Перейти к последнему сообщению

В этой теме нет новых непрочитанных сообщений. Скачать торрент Проверен (Шансон) Ростислав Поспелов - Вот и кончился срок - 2007, MP3, VBR~160-320 kbps

в форуме Шансон|Авторская песня, Размер: 83.16 МБ, Здоровье: 0%

Anonymous

0
0|0

0
0

05 ноя 2016, 18:41

Anonymous Перейти к последнему сообщению



Сейчас этот форум просматривают: нет зарегистрированных пользователей и гости: 1


Вы не можете начинать темы
Вы не можете отвечать на сообщения
Вы не можете редактировать свои сообщения
Вы не можете удалять свои сообщения
Вы не можете добавлять вложения

Перейти:  

!ВНИМАНИЕ!
 Ресурс не предоставляет электронные версии произведений, а занимается лишь коллекционированием и каталогизацией ссылок, присылаемых и публикуемых на форуме нашими читателями. Если вы являетесь правообладателем какого-либо представленного материала и не желаете чтобы ссылка на него находилась в нашем каталоге, свяжитесь с нами и мы незамедлительно удалим её. Файлы для обмена на трекере предоставлены пользователями сайта, и администрация не несёт ответственности за их содержание. Просьба не заливать файлы, защищенные авторскими правами, а также файлы нелегального содержания!