На всех торрентах на трекере установлена скидка на скачивание в размере 100 процентов(а).
 Возможность скачивания торрента НЕ зависит от ограничений при низком ратио, низком аплоаде, требуемом ратио или требуемом аплоаде.


Начать новую тему Ответить на тему
Статистика раздачи
Размер: 1.47 ГБ | Добавлен: 27 окт 2012, 10:53 | Скачали: 0
Сидеров: 0  [0 байт/сек]    Личеров: 0  [0 байт/сек]
Пред. тема | След. тема 

Автор
Сообщение

СообщениеДобавлено: 27 окт 2012, 10:53 

  • Страна: США
  • Жанр:триллер, комедия, криминал
  • Год выпуска: 2011
  • Продолжительность: 01:42:00

    Перевод:Одноголосый закадровый
  • Cубтитры: нет
  • Режиссер:Уильям Фридкин / William Friedkin
  • В ролях: Мэттью МакКонахи, Эмиль Хирш, Джуно Темпл, Томас Хейден Чёрч, Джина Гершон, Скотт А. Мартин, Грэйлен Брайант Бэнкс, Кэрол Саттон, Дэнни Эппер, Джефф Галпин
  • Описание:
    Фильм рассказывает о брате и сестре, которые замышляют убийство матери, чтобы получить деньги по страховке и по этому случаю они нанимают «Киллера Джо» Купера — копа и наемного убийцу.

  • Качество видео: HDRip
  • Формат видео: AVI
  • Исходник BDRip 720p
  • Видео:XviD, 1664 Kb/s, 720x384,23,976 кадр/сек
  • Аудио:AC3, 384 Kb/s (6 ch),44,1 КГц
Общее
Полное имя : D:\Торенты\Killer.Joe.2011.L1.HDRip.1400Mb.avi
Формат : AVI
Формат/Информация : Audio Video Interleave
Размер файла : 1,47 Гбайт
Продолжительность : 1 ч. 42 м.
Общий поток : 2057 Кбит/сек
Программа кодирования : VirtualDubMod 1.5.10.2 (build 2542/release)
Библиотека кодирования : VirtualDubMod build 2542/release
Видео
Идентификатор : 0
Формат : MPEG-4 Visual
Профиль формата : Advanced Simple@L5
Параметр BVOP формата : 2
Параметр QPel формата : Нет
Параметр GMC формата : Без точки перехода
Параметр матрицы формата : Default (H.263)
Режим смешивания : Сжатый битовый поток
Идентификатор кодека : XVID
Идентификатор кодека/Подсказка : XviD
Продолжительность : 1 ч. 42 м.
Битрейт : 1664 Кбит/сек
Ширина : 720 пикс.
Высота : 384 пикс.
Соотношение сторон : 1,875
Частота кадров : 23,976 кадр/сек
Цветовое пространство : YUV
Подвыборка цветности : 4:2:0
Битовая глубина : 8 бит
Тип развёртки : Прогрессивная
Метод сжатия : С потерями
Бит/(Пиксели*Кадры) : 0.251
Размер потока : 1,19 Гбайт (81%)
Библиотека кодирования : XviD 64
Аудио
Идентификатор : 1
Формат : AC-3
Формат/Информация : Audio Coding 3
Расширение режима : CM (complete main)
Идентификатор кодека : 2000
Продолжительность : 1 ч. 42 м.
Вид битрейта : Постоянный
Битрейт : 384 Кбит/сек
Каналы : 6 каналов
Расположение каналов : Front: L C R, Side: L R, LFE
Частота : 44,1 КГц
Битовая глубина : 16 бит
Метод сжатия : С потерями
Задержка видео : 313 мс.
Размер потока : 281 Мбайт (19%)
Выравнивание : Разделение по промежуткам
Продолжительность промежутка : 42 мс. (1,00 видеокадр)
Время предзагрузки промежутка : 500 ms



загрузка...
Правила, инструкции, FAQ!!!
Торрент  Добавлен [27 окт 2012, 10:53] Скачать торрент
Скачать торрент
[ Размер 15.3 КБ / Просмотров 26 ]

Статус
Проверен 
 
Размер  1.47 ГБ
Приватный: Нет (DHT включён)
.torrent скачан  0
Как залить торрент? | Как скачать Torrent? | Как смотреть и слушать онлайн?  


     Отправить личное сообщение
   
Страница 1 из 1
Показать сообщения за:  Поле сортировки  
Начать новую тему Ответить на тему

   Похожие торренты   Автор   Ответы   Просмотры   Последнее сообщение 
В этой теме нет новых непрочитанных сообщений. Скачать торрент Глюки / Bug (Уильям Фридкин / William Friedkin) [2006, США, Германия, психологическая драма, HDRip-AVC] DUB

в форуме 720p | 1080p, Размер: 2.18 ГБ, Здоровье: 0%

Anonymous

0
0|0

22
0

17 фев 2014, 11:44

Anonymous Перейти к последнему сообщению

В этой теме нет новых непрочитанных сообщений. Скачать торрент Защита от дурака / Foolproof (Уильям Филлипс / William Phillips) [2003, боевик, триллер, комедия, криминал, HDTVRip] MVO

в форуме Боевики, Размер: 1.46 ГБ, Здоровье: 100%

Anonymous

0
7|2

28
0

22 апр 2014, 11:40

Anonymous Перейти к последнему сообщению

В этой теме нет новых непрочитанных сообщений. Скачать торрент Грешники и Святые / Sinners and Saints (Уильям Кауфман / William Kaufman) [2010, США, боевик, триллер, криминал, HDRip]

в форуме Боевики, Размер: 1.45 ГБ, Здоровье: 100%

Anonymous

0
7|2

50
0

02 апр 2014, 08:21

Anonymous Перейти к последнему сообщению

В этой теме нет новых непрочитанных сообщений. Скачать торрент Телохранитель / London Boulevard ( Уильям Монахэн / William Monahan) [2010, США, Великобритания, Триллер, мелодрама, криминал, DVDRip-AVC] Dub

в форуме Триллеры, Размер: 1.45 ГБ, Здоровье: 0%

Anonymous

0
0|0

52
0

02 апр 2014, 12:04

Anonymous Перейти к последнему сообщению

В этой теме нет новых непрочитанных сообщений. Скачать торрент Телохранитель / London Boulevard (Уильям Монахэн / William Monahan) [2010, США, Великобритания, триллер, драма, криминал, BDRip] DUB + Original (Eng) + Subs (rus,eng)

в форуме Триллеры, Размер: 2.17 ГБ, Здоровье: 0%

Anonymous

0
0|0

65
0

13 фев 2014, 06:34

Anonymous Перейти к последнему сообщению



Сейчас этот форум просматривают: нет зарегистрированных пользователей и гости: 2


Вы не можете начинать темы
Вы не можете отвечать на сообщения
Вы не можете редактировать свои сообщения
Вы не можете удалять свои сообщения
Вы не можете добавлять вложения

Перейти:  

!ВНИМАНИЕ!
 Ресурс не предоставляет электронные версии произведений, а занимается лишь коллекционированием и каталогизацией ссылок, присылаемых и публикуемых на форуме нашими читателями. Если вы являетесь правообладателем какого-либо представленного материала и не желаете чтобы ссылка на него находилась в нашем каталоге, свяжитесь с нами и мы незамедлительно удалим её. Файлы для обмена на трекере предоставлены пользователями сайта, и администрация не несёт ответственности за их содержание. Просьба не заливать файлы, защищенные авторскими правами, а также файлы нелегального содержания!