На всех торрентах на трекере установлена скидка на скачивание в размере 100 процентов(а).
 Возможность скачивания торрента НЕ зависит от ограничений при низком ратио, низком аплоаде, требуемом ратио или требуемом аплоаде.


Начать новую тему Ответить на тему
Статистика раздачи
Размер: 698.23 МБ | Добавлен: 18 май 2014, 09:35 | Скачали: 0
Сидеров: 0  [0 байт/сек]    Личеров: 0  [0 байт/сек]
Пред. тема | След. тема 

Автор
Сообщение

СообщениеДобавлено: 18 май 2014, 09:35 

Не безопасно для работы / Not Safe for Work

Страна: США
Жанр: Триллер
Год выпуска: 2014
Продолжительность: 01:11:10

Перевод: Одноголосый закадровый datynet
Cубтитры: нет
Оригинальная аудиодорожка: нет

Режиссер: Джо Джонстон / Joe Johnston

В ролях: Джей Джей Филд, Элоиза Мамфорд, Макс Мингелла, Майкл Глэдис, Молли Хэйгэн, Кристиан Клименсон, Брэндон Кинер, Тим Гриффин, Марина Блэк, Эме Иквуакор

Описание: Обычный офисный работник Том Миллер вынужден вступить в смертельное противостояние с безумным убийцей, оказавшимся в одном с ним здании. Том всеми силами пытается защитить работающих допоздна сотрудников своей юридической фирмы, которые не подозревают о нависшей над ними угрозой, однако вскоре выясняет, что его коллеги скрывают ужасную тайну, из-за которой тысячи жизней подвергаются опасности.

Доп. информация:
Kinopoisk
IMDB
Sample

Качество видео: HDRip
Формат видео: AVI

Видео: Xvid 720x384 25fps 1 199 Kbps
Аудио: MP3 44100Hz stereo 160kbpsMediaInfo
General
Complete name : C:\Not.Safe.for.Work.2014.HDRip.avi
Format : AVI
Format/Info : Audio Video Interleave
File size : 698 MiB
Duration : 1h 11mn
Overall bit rate : 1 372 Kbps
Movie name : RARBG.COM - Not.Safe.for.Work.2014.DVDRip.XviD.MP3-RARBG
Writing application : Lavf55.35.101
Comment : RARBG.COM - Not.Safe.for.Work.2014.DVDRip.XviD.MP3-RARBG

Video
ID : 0
Format : MPEG-4 Visual
Format profile : Simple@L5
Format settings, BVOP : No
Format settings, QPel : No
Format settings, GMC : No warppoints
Format settings, Matrix : Default (H.263)
Codec ID : XVID
Codec ID/Hint : XviD
Duration : 1h 11mn
Bit rate : 1 199 Kbps
Width : 720 pixels
Height : 384 pixels
Display aspect ratio : 1.85:1
Frame rate : 25.000 fps
Color space : YUV
Chroma subsampling : 4:2:0
Bit depth : 8 bits
Scan type : Progressive
Compression mode : Lossy
Bits/(Pixel*Frame) : 0.174
Stream size : 610 MiB (87%)
Writing library : Lavc55.55.104

Audio
ID : 1
Format : MPEG Audio
Format version : Version 1
Format profile : Layer 3
Codec ID : 55
Codec ID/Hint : MP3
Duration : 1h 11mn
Bit rate mode : Constant
Bit rate : 160 Kbps
Channel count : 2 channels
Sampling rate : 44.1 KHz
Compression mode : Lossy
Stream size : 81.4 MiB (12%)
Alignment : Aligned on interleaves
Interleave, duration : 26 ms (0.65 video frame)
Interleave, preload duration : 26 ms
Скриншот c названием фильма
Скриншоты
загрузка...
Правила, инструкции, FAQ!!!
Торрент  Добавлен [18 май 2014, 09:35] Скачать торрент
Скачать торрент
[ Размер 14.24 КБ / Просмотров 5 ]

Статус  
 
Размер  698.23 МБ
Приватный: Нет (DHT включён)
.torrent скачан  0
Как залить торрент? | Как скачать Torrent? | Как смотреть и слушать онлайн?  


     Отправить личное сообщение
   
Страница 1 из 1
Показать сообщения за:  Поле сортировки  
Начать новую тему Ответить на тему

   Похожие торренты   Автор   Ответы   Просмотры   Последнее сообщение 
В этой теме нет новых непрочитанных сообщений. Скачать торрент Человек-волк / The Wolfman (Джо Джонстон / Joe Johnston) [2010 г., ужасы, триллер, HDRip] [Режиссерская версия / Unrated Directors Cut] Dub

в форуме Ужасы, Размер: 745.33 МБ, Здоровье: 0%

Anonymous

0
0|0

71
0

19 фев 2014, 09:52

Anonymous Перейти к последнему сообщению

В этой теме нет новых непрочитанных сообщений. Скачать торрент Проверен Человек-волк / The Wolfman (Джо Джонстон / Joe Johnston) [2010, США, ужасы, триллер, драма, BDRip, 480p] Dub + Original + sub (rus, eng)

в форуме Фильмы для iPod, iPhone, iPad, Размер: 1.72 ГБ, Здоровье: 100%

Anonymous

0
5|1

48
0

12 май 2015, 00:11

Anonymous Перейти к последнему сообщению

В этой теме нет новых непрочитанных сообщений. Скачать торрент Человек-волк / The Wolfman (Джо Джонстон / Joe Johnston) [2010 г., ужасы, триллер, драма, BDRip-AVC] [Театральная версия / Theatrical cut] Dub

в форуме Ужасы, Размер: 2.2 ГБ, Здоровье: 0%

Anonymous

0
0|0

120
0

17 май 2014, 20:07

Anonymous Перейти к последнему сообщению

В этой теме нет новых непрочитанных сообщений. Скачать торрент Парк Юрского периода 3 / Jurassic Park III (Джо Джонстон / Joe Johnston) [2001 г, фантастика, боевик, триллер, приключения, BDRip] MVO (Киномания)

в форуме Фантастика, Фэнтези, Размер: 1.46 ГБ, Здоровье: 100%

Anonymous

0
16|5

102
0

26 апр 2014, 20:55

Anonymous Перейти к последнему сообщению

В этой теме нет новых непрочитанных сообщений. Скачать торрент Идальго: Погоня в пустыне / Hidalgo (Джо Джонстон / Joe Johnston) [ 2004 , боевик, драма, приключения , BDRip 720p]

в форуме 720p | 1080p, Размер: 4.98 ГБ, Здоровье: 0%

Anonymous

0
0|0

45
0

25 фев 2014, 22:39

Anonymous Перейти к последнему сообщению



Сейчас этот форум просматривают: нет зарегистрированных пользователей и гости: 2


Вы не можете начинать темы
Вы не можете отвечать на сообщения
Вы не можете редактировать свои сообщения
Вы не можете удалять свои сообщения
Вы не можете добавлять вложения

Перейти:  

!ВНИМАНИЕ!
 Ресурс не предоставляет электронные версии произведений, а занимается лишь коллекционированием и каталогизацией ссылок, присылаемых и публикуемых на форуме нашими читателями. Если вы являетесь правообладателем какого-либо представленного материала и не желаете чтобы ссылка на него находилась в нашем каталоге, свяжитесь с нами и мы незамедлительно удалим её. Файлы для обмена на трекере предоставлены пользователями сайта, и администрация не несёт ответственности за их содержание. Просьба не заливать файлы, защищенные авторскими правами, а также файлы нелегального содержания!