На всех торрентах на трекере установлена скидка на скачивание в размере 100 процентов(а).
 Возможность скачивания торрента НЕ зависит от ограничений при низком ратио, низком аплоаде, требуемом ратио или требуемом аплоаде.


Начать новую тему Ответить на тему
Статистика раздачи
Размер: 2.18 ГБ | Добавлен: 17 май 2014, 20:08 | Скачали: 0
Сидеров: 0  [0 байт/сек]    Личеров: 0  [0 байт/сек]
Пред. тема | След. тема 

Автор
Сообщение

СообщениеДобавлено: 17 май 2014, 20:08 

Руки-ноги за любовь
Burke and Hare

Год выпуска: 2010
Страна: Великобритания
Жанр: Триллер, комедия
Продолжительность: 01:31:27
Перевод: Профессиональный (полное дублирование) + Оригинальная звуковая дорожка
Cубтитры: русские, английские
Режиссер: Джон Лэндис
Сценарий: Пьерс Эшворт, Ник Муркрофт
Продюсер: Барнеби Томпсон, Джеймс Атертон, Пол Бретт, ...
Оператор: Джон Мэтисон
Композитор: Джоби Тэлбот
Художник: Саймон Эллиотт, Билл Кратчер, Ник Дент, ...
Монтаж: Марк Эверсон
В ролях: Саймон Пегг, Энди Серкис, Айла Фишер, Том Уилкинсон, Билл Бэйли, Майкл Смайли, Тим Карри, Пол Дэвис, Кристиан Брассингтон, Джессика Хайнс
Описание: Черная комедия, действие которой происходит в 19 веке, поведает нам историю двух грабителей могил, которые находят для себя прибыль в похищении трупов и доставки их в Эдинбургскую военно-медицинскую школу…
IMDB: 6.10 (3658 votes)
КиноПоиск: 6.29 (1425 votes)
Sample
Качество: BDRip-AVC (источник: / Blu-Ray Remux / 1080p)
Формат: MKV
Видео кодек: H.264
Аудио кодек: AC3
Видео: 1280x534 (2.40:1), 24 fps, 2651 kbps
Аудио 1: 48 kHz, 6 ch, 384 kbps | Dub
Аудио 2: 48 kHz, 6 ch, 384 kbps | Original
source vs rip
Скриншоты:
MI:
General
Unique ID : 240728484435540402760081406832607569674 (0xB51A9EA24F104C8694467C3497FD270A)
Complete name : D:\Мои раздачи\Руки-ноги за любовь\Burke and Hare.mkv
Format : Matroska
Format version : Version 2
File size : 2.18 GiB
Duration : 1h 31mn
Overall bit rate : 3 417 Kbps
Encoded date : UTC 2011-07-19 14:53:05
Writing application : mkvmerge v4.7.0 ('Just Like You Imagined') сборка от Apr 21 2011 01:13:14
Writing library : libebml v1.2.0 + libmatroska v1.1.0

Video
ID : 1
Format : AVC
Format/Info : Advanced Video Codec
Format profile : High@L4.1
Format settings, CABAC : Yes
Format settings, ReFrames : 9 frames
Codec ID : V_MPEG4/ISO/AVC
Duration : 1h 31mn
Bit rate : 2 651 Kbps
Width : 1 280 pixels
Height : 534 pixels
Display aspect ratio : 2.40:1
Frame rate : 24.000 fps
Color space : YUV
Chroma subsampling : 4:2:0
Bit depth : 8 bits
Scan type : Progressive
Bits/(Pixel*Frame) : 0.162
Stream size : 1.65 GiB (76%)
Writing library : x264 core 115 r1995 c1e60b9
Encoding settings : cabac=1 / ref=9 / deblock=1:-3:-3 / analyse=0x3:0x113 / me=umh / subme=10 / psy=1 / psy_rd=1.00:0.20 / mixed_ref=1 / me_range=32 / chroma_me=1 / trellis=2 / 8x8dct=1 / cqm=0 / deadzone=21,11 / fast_pskip=0 / chroma_qp_offset=-2 / threads=6 / sliced_threads=0 / nr=0 / decimate=1 / interlaced=0 / bluray_compat=0 / constrained_intra=0 / bframes=12 / b_pyramid=2 / b_adapt=2 / b_bias=0 / direct=3 / weightb=1 / open_gop=0 / weightp=2 / keyint=250 / keyint_min=24 / scenecut=40 / intra_refresh=0 / rc_lookahead=60 / rc=2pass / mbtree=1 / bitrate=2651 / ratetol=1.0 / qcomp=0.60 / qpmin=0 / qpmax=65 / qpstep=4 / cplxblur=20.0 / qblur=0.5 / ip_ratio=1.40 / aq=1:1.00
Language : English

Audio #1
ID : 2
Format : AC-3
Format/Info : Audio Coding 3
Mode extension : CM (complete main)
Codec ID : A_AC3
Duration : 1h 31mn
Bit rate mode : Constant
Bit rate : 384 Kbps
Channel(s) : 6 channels
Channel positions : Front: L C R, Side: L R, LFE
Sampling rate : 48.0 KHz
Bit depth : 16 bits
Compression mode : Lossy
Stream size : 251 MiB (11%)
Title : Dub
Language : Russian

Audio #2
ID : 3
Format : AC-3
Format/Info : Audio Coding 3
Mode extension : CM (complete main)
Codec ID : A_AC3
Duration : 1h 31mn
Bit rate mode : Constant
Bit rate : 384 Kbps
Channel(s) : 6 channels
Channel positions : Front: L C R, Side: L R, LFE
Sampling rate : 48.0 KHz
Bit depth : 16 bits
Compression mode : Lossy
Stream size : 251 MiB (11%)
Title : Original
Language : English

Text #1
ID : 4
Format : UTF-8
Codec ID : S_TEXT/UTF8
Codec ID/Info : UTF-8 Plain Text
Title : Eng
Language : English

Text #2
ID : 5
Format : UTF-8
Codec ID : S_TEXT/UTF8
Codec ID/Info : UTF-8 Plain Text
Title : Rus
Language : Russian
загрузка...
Правила, инструкции, FAQ!!!
Торрент  Добавлен [17 май 2014, 20:08] Скачать торрент
Скачать торрент
[ Размер 11.45 КБ / Просмотров 8 ]

Статус  
 
Размер  2.18 ГБ
Приватный: Нет (DHT включён)
.torrent скачан  0
Как залить торрент? | Как скачать Torrent? | Как смотреть и слушать онлайн?  


     Отправить личное сообщение
   
Страница 1 из 1
Показать сообщения за:  Поле сортировки  
Начать новую тему Ответить на тему

   Похожие торренты   Автор   Ответы   Просмотры   Последнее сообщение 
В этой теме нет новых непрочитанных сообщений. Скачать торрент Проверен Руки-ноги за любовь / Burke and Hare (2010) BDRip 720p | D, P2

в форуме 720p | 1080p, Размер: 6.3 ГБ, Здоровье: 100%

Гость

0
43|20

58
19

21 июн 2015, 23:07

Гость Перейти к последнему сообщению

В этой теме нет новых непрочитанных сообщений. Скачать торрент Проверен Cyril Hare/Сирил Хэйр - Сирил Хэйр /Cyril Hare - Собрание сочинений [1900-1958, FB2, RUS] [1900-1958, FB2, RUS]

в форуме Детективы и Боевики, Размер: 8.02 МБ, Здоровье: 100%

Anonymous

0
12|4

11
0

09 сен 2016, 00:05

Anonymous Перейти к последнему сообщению

В этой теме нет новых непрочитанных сообщений. Скачать торрент Проверен Дом большой мамочки 2 / Big Momma's House 2 (Джон Уайтселл / John Whitesell) [2006, боевик, триллер, комедия BDRip, 480p] DUB, Original + sub (rus, eng)

в форуме Фильмы для iPod, iPhone, iPad, Размер: 1.43 ГБ, Здоровье: 100%

Гость

0
23|7

33
0

12 май 2015, 00:07

Гость Перейти к последнему сообщению

В этой теме нет новых непрочитанных сообщений. Скачать торрент Проверен Burke Alafair / Бёрк Алафер - Собрание сочинений [2012-2014, FB2/RTF, RUS]

в форуме Детективы и Боевики, Размер: 6.53 МБ, Здоровье: 0%

Anonymous

0
0|0

2
0

08 сен 2016, 21:47

Anonymous Перейти к последнему сообщению

В этой теме нет новых непрочитанных сообщений. Скачать торрент Дом большой мамочки 2 / Big Momma's House 2 (Джон Уайтселл / John Whitesell) [2006 г., боевик, триллер, комедия, BDRip]

в форуме Боевики, Размер: 1.72 ГБ, Здоровье: 100%

Anonymous

0
17|5

64
1

20 фев 2014, 14:03

Anonymous Перейти к последнему сообщению



Сейчас этот форум просматривают: нет зарегистрированных пользователей и гости: 2


Вы не можете начинать темы
Вы не можете отвечать на сообщения
Вы не можете редактировать свои сообщения
Вы не можете удалять свои сообщения
Вы не можете добавлять вложения

Перейти:  

!ВНИМАНИЕ!
 Ресурс не предоставляет электронные версии произведений, а занимается лишь коллекционированием и каталогизацией ссылок, присылаемых и публикуемых на форуме нашими читателями. Если вы являетесь правообладателем какого-либо представленного материала и не желаете чтобы ссылка на него находилась в нашем каталоге, свяжитесь с нами и мы незамедлительно удалим её. Файлы для обмена на трекере предоставлены пользователями сайта, и администрация не несёт ответственности за их содержание. Просьба не заливать файлы, защищенные авторскими правами, а также файлы нелегального содержания!