На всех торрентах на трекере установлена скидка на скачивание в размере 100 процентов(а).
 Возможность скачивания торрента НЕ зависит от ограничений при низком ратио, низком аплоаде, требуемом ратио или требуемом аплоаде.


Начать новую тему Ответить на тему
Статистика раздачи
Размер: 1.36 ГБ | Добавлен: 17 май 2014, 07:52 | Скачали: 1
Сидеров: 1  [0 байт/сек]    Личеров: 0  [0 байт/сек]
Пред. тема | След. тема 

Автор
Сообщение

СообщениеДобавлено: 17 май 2014, 07:52 

Экстрасенс 2: Лабиринты разума / Mindscape / Anna


Страна: США, Испания, Франция
Жанр: триллер, драма
Год выпуска: 2013
Продолжительность: 01:38:47

Перевод: Одноголосый закадровый datynet
Cубтитры: нет
Оригинальная аудиодорожка: нет

Режиссер: Хорхе С. Дорадо / Jorge Dorado

В ролях: Индира Варма, Таисса Фармига, Марк Стронг, Брайан Кокс, Ноа Тейлор, Род Халлетт, Саския Ривз, Джессика Барден, Клер Кэлбрайт, Альберто Амман

Описание: Джон — человек, обладающий паранормальными способностями, расследует новое дело. В этот раз ему предстоит общение с 16 летней напуганной девушкой, и главному герою предстоит ответить на вопрос — кто такая Анна? Жертва обстоятельств или убийца-социопат?

Сэмпл: http://multi-up.com/973141

Качество видео: WEB-DLRip
Формат видео: AVI

Видео: Xvid 720x304 23.98fps 1 776 Kbps
Аудио: MPEG Audio Layer 3 44100Hz stereo 192kbps

MediaInfo
Format : AVI
Format/Info : Audio Video Interleave
File size : 1.36 GiB
Duration : 1h 38mn
Overall bit rate : 1 978 Kbps
Writing application : VirtualDubMod 1.5.10.3 | http://www.virtualdub-fr.org || (build 2550/release)
Writing library : VirtualDubMod build 2550/release

Video
ID : 0
Format : MPEG-4 Visual
Format profile : Advanced Simple@L5
Format settings, BVOP : Yes
Format settings, QPel : No
Format settings, GMC : No warppoints
Format settings, Matrix : Custom
Codec ID : XVID
Codec ID/Hint : XviD
Duration : 1h 38mn
Bit rate : 1 776 Kbps
Width : 720 pixels
Height : 304 pixels
Display aspect ratio : 2.35:1
Frame rate : 23.976 fps
Resolution : 8 bits
Colorimetry : 4:2:0
Scan type : Progressive
Bits/(Pixel*Frame) : 0.339
Stream size : 1.23 GiB (90%)
Writing library : XviD 1.2.1 (UTC 2008-12-04)

Audio
ID : 1
Format : MPEG Audio
Format version : Version 1
Format profile : Layer 3
Codec ID : 55
Codec ID/Hint : MP3
Duration : 1h 38mn
Bit rate mode : Constant
Bit rate : 192 Kbps
Channel(s) : 2 channels
Sampling rate : 44.1 KHz
Stream size : 136 MiB (10%)
Alignment : Split accross interleaves
Interleave, duration : 42 ms (1.00 video frame)
Interleave, preload duration : 500 ms


Скриншоты
загрузка...
Правила, инструкции, FAQ!!!
Торрент  Добавлен [17 май 2014, 07:52] Скачать торрент
Скачать торрент
[ Размер 14.18 КБ / Просмотров 8 ]

Статус  
 
Размер  1.36 ГБ
Приватный: Нет (DHT включён)
.torrent скачан  1
Как залить торрент? | Как скачать Torrent? | Как смотреть и слушать онлайн?  


     Отправить личное сообщение
   
Страница 1 из 1
Показать сообщения за:  Поле сортировки  
Начать новую тему Ответить на тему

   Похожие торренты   Автор   Ответы   Просмотры   Последнее сообщение 
В этой теме нет новых непрочитанных сообщений. Скачать торрент Проверен Экстрасенс 2: Лабиринты разума / Mindscape (2013) BDRip 720p | Чистый звук

в форуме 720p | 1080p, Размер: 5.98 ГБ, Здоровье: 0%

Гость

0
1|683

30
0

24 ноя 2014, 22:54

Гость Перейти к последнему сообщению

В этой теме нет новых непрочитанных сообщений. Скачать торрент Другие / The Others (Алехандро Аменабар / Alejandro Amenabar) [2001, США, Испания, Италия, Франция, Триллер, Драма, Мистика, BDRip] Dub

в форуме Триллеры, Размер: 1.46 ГБ, Здоровье: 0%

Anonymous

0
0|0

44
0

03 фев 2014, 12:33

Anonymous Перейти к последнему сообщению

В этой теме нет новых непрочитанных сообщений. Скачать торрент Проверен [iPad] Другие / The Others (Алехандро Аменабар/ Alejandro Amenábar) [2001, США, Франция, Италия, Испания, Ужасы, триллер, драма, детектив, BDRip, 576p] Dub + Original + sub (rus, eng)

в форуме Фильмы для iPod, iPhone, iPad, Размер: 1.79 ГБ, Здоровье: 100%

Anonymous

0
19|6

114
0

13 май 2015, 23:56

Anonymous Перейти к последнему сообщению

В этой теме нет новых непрочитанных сообщений. Скачать торрент Зеркала / Mirrors (Александр Ажа / Alexandre Aja) [2008, США, Румыния, Германия, Испания, Франция, ужасы, триллер, детектив, BDRip] [UNRATED] Dub

в форуме Ужасы, Размер: 1.45 ГБ, Здоровье: 0%

Anonymous

0
0|0

41
0

04 фев 2014, 21:26

Anonymous Перейти к последнему сообщению

В этой теме нет новых непрочитанных сообщений. Скачать торрент Генрих Наваррский / Henri 4 (2 части из 2) (Джо Байер / Jo Baier) [2009, Германия, Франция, Австрия, Испания, драма, исторический, DVDRip] MVO

в форуме Исторические, Размер: 2.88 ГБ, Здоровье: 100%

Anonymous

0
44|14

263
0

01 апр 2014, 09:35

Anonymous Перейти к последнему сообщению



Сейчас этот форум просматривают: нет зарегистрированных пользователей и гости: 1


Вы не можете начинать темы
Вы не можете отвечать на сообщения
Вы не можете редактировать свои сообщения
Вы не можете удалять свои сообщения
Вы не можете добавлять вложения

Перейти:  

!ВНИМАНИЕ!
 Ресурс не предоставляет электронные версии произведений, а занимается лишь коллекционированием и каталогизацией ссылок, присылаемых и публикуемых на форуме нашими читателями. Если вы являетесь правообладателем какого-либо представленного материала и не желаете чтобы ссылка на него находилась в нашем каталоге, свяжитесь с нами и мы незамедлительно удалим её. Файлы для обмена на трекере предоставлены пользователями сайта, и администрация не несёт ответственности за их содержание. Просьба не заливать файлы, защищенные авторскими правами, а также файлы нелегального содержания!