На всех торрентах на трекере установлена скидка на скачивание в размере 100 процентов(а).
 Возможность скачивания торрента НЕ зависит от ограничений при низком ратио, низком аплоаде, требуемом ратио или требуемом аплоаде.


Начать новую тему Ответить на тему
Статистика раздачи
Размер: 1.39 ГБ | Добавлен: 17 май 2014, 00:04 | Скачали: 0
Сидеров: 0  [0 байт/сек]    Личеров: 0  [0 байт/сек]
Пред. тема | След. тема 

Автор
Сообщение

СообщениеДобавлено: 17 май 2014, 00:04 

Катастрофа / Blue Ruin

Страна: США
Жанр: Триллер
Год выпуска: 2013
Продолжительность: 01:30:24

Перевод: Одноголосый закадровый Xixidok
Cубтитры: нет
Оригинальная аудиодорожка: английский

Режиссер: Джереми Солнье / Jeremy Saulnier

В ролях: Макон Блэр, Девин Рэтрей, Эми Харгривз, Кевин Колак, Ив Пламб, Дэвид В. Томпсон, Стэйси Рок, Сидне Андерсон, Бонни Джонсон

Описание: Спокойная жизнь таинственного затворника переворачивается с ног на голову, когда он возвращается туда, где провел детство, желая отомстить. Он ввязывается в жестокую борьбу, чтобы защитить свою семью…




Качество видео: WEB-DLRip
Формат видео: AVI

Видео: Xvid 720x304 23.976fps 1 797 Kbps
Аудио: MP3 44100Hz stereo 192kbps Rus
Аудио 2: AC-3 48.0 KHz stereo 192kbps Eng

MediaInfo
General
Complete name : D:\Blue.Ruin.2013.L1.WEBDLRip.avi
Format : AVI
Format/Info : Audio Video Interleave
File size : 1.39 GiB
Duration : 1h 30mn
Overall bit rate : 2 195 Kbps
Writing application : VirtualDubMod 1.5.10.3 | http://www.virtualdub-fr.org || (build 2550/release)
Writing library : VirtualDubMod build 2550/release

Video
ID : 0
Format : MPEG-4 Visual
Format profile : Advanced Simple@L5
Format settings, BVOP : Yes
Format settings, QPel : No
Format settings, GMC : No warppoints
Format settings, Matrix : Default (H.263)
Codec ID : XVID
Codec ID/Hint : XviD
Duration : 1h 30mn
Bit rate : 1 797 Kbps
Width : 720 pixels
Height : 304 pixels
Display aspect ratio : 2.35:1
Frame rate : 23.976 fps
Color space : YUV
Chroma subsampling : 4:2:0
Bit depth : 8 bits
Scan type : Progressive
Compression mode : Lossy
Bits/(Pixel*Frame) : 0.342
Stream size : 1.13 GiB (82%)
Writing library : XviD 1.2.1 (UTC 2008-12-04)

Audio #1
ID : 1
Format : MPEG Audio
Format version : Version 1
Format profile : Layer 3
Codec ID : 55
Codec ID/Hint : MP3
Duration : 1h 30mn
Bit rate mode : Constant
Bit rate : 192 Kbps
Channel count : 2 channels
Sampling rate : 44.1 KHz
Compression mode : Lossy
Stream size : 124 MiB (9%)
Alignment : Split accross interleaves
Interleave, duration : 42 ms (1.00 video frame)
Interleave, preload duration : 500 ms

Audio #2
ID : 2
Format : AC-3
Format/Info : Audio Coding 3
Mode extension : CM (complete main)
Format settings, Endianness : Big
Codec ID : 2000
Duration : 1h 30mn
Bit rate mode : Constant
Bit rate : 192 Kbps
Channel count : 2 channels
Channel positions : Front: L R
Sampling rate : 48.0 KHz
Bit depth : 16 bits
Compression mode : Lossy
Stream size : 124 MiB (9%)
Alignment : Split accross interleaves
Interleave, duration : 42 ms (1.00 video frame)
Interleave, preload duration : 500 ms
Скриншоты
загрузка...
Правила, инструкции, FAQ!!!
Торрент  Добавлен [17 май 2014, 00:04] Скачать торрент
Скачать торрент
[ Размер 14.45 КБ / Просмотров 7 ]

Статус  
 
Размер  1.39 ГБ
Приватный: Нет (DHT включён)
.torrent скачан  0
Как залить торрент? | Как скачать Torrent? | Как смотреть и слушать онлайн?  


     Отправить личное сообщение
   
Страница 1 из 1
Показать сообщения за:  Поле сортировки  
Начать новую тему Ответить на тему

   Похожие торренты   Автор   Ответы   Просмотры   Последнее сообщение 
В этой теме нет новых непрочитанных сообщений. Скачать торрент Проверен Катастрофа / Blue Ruin (2013) BDRip [H.264/1080p-LQ]

в форуме 720p | 1080p, Размер: 4.38 ГБ, Здоровье: 100%

Anonymous

0
25|1

25
1

18 июл 2014, 00:09

Anonymous Перейти к последнему сообщению

В этой теме нет новых непрочитанных сообщений. Скачать торрент Проверен Kот Гpом и зaколдoванный дoм в 3Д / Тhe Ноuse of Мagiс 3D (Джереми Дегрусон, Бе / Jeremy Degruson, Ben) [2013, Мультфильм, Семейный, BDrip, 1080p] OverUnder / Вертикальная стереопара

в форуме HD-Video в 3D, Размер: 8.05 ГБ, Здоровье: 100%

Anonymous

0
23|8

37
0

02 ноя 2014, 09:47

Anonymous Перейти к последнему сообщению

В этой теме нет новых непрочитанных сообщений. Скачать торрент Проверен A Book Apart - Jeremy Keith/Джереми Кит - HTML5 для веб-дизайнеров/HTML5 for web designers [2013, PDF, RUS]

в форуме Веб-дизайн и программирование, Размер: 19.14 МБ, Здоровье: 100%

Anonymous

0
34|11

2
0

22 окт 2016, 11:44

Anonymous Перейти к последнему сообщению

В этой теме нет новых непрочитанных сообщений. Скачать торрент Проверен Кот Гром и заколдованный дом в 3Д / The House of Magic 3D (Джереми Дегрусон, Бен Стассен / Jeremy Degruson, Ben Stassen) [2013, Мультфильм, BDremux, 1080p] BD3D [Re-Encode - Left foreshortening first]

в форуме 3D Мультфильмы, Размер: 14.54 ГБ, Здоровье: 0%

Anonymous

0
0|0

2
0

07 сен 2016, 17:59

Anonymous Перейти к последнему сообщению

В этой теме нет новых непрочитанных сообщений. Скачать торрент Проверен Джереми Робинсон / Jeremy Robinson - Собрание сочинений [2005-2009, FB2, RTF, RUS]

в форуме Детективы и Боевики, Размер: 8.03 МБ, Здоровье: 0%

Anonymous

0
0|0

1
0

08 сен 2016, 21:21

Anonymous Перейти к последнему сообщению



Сейчас этот форум просматривают: нет зарегистрированных пользователей и гости: 1


Вы не можете начинать темы
Вы не можете отвечать на сообщения
Вы не можете редактировать свои сообщения
Вы не можете удалять свои сообщения
Вы не можете добавлять вложения

Перейти:  

!ВНИМАНИЕ!
 Ресурс не предоставляет электронные версии произведений, а занимается лишь коллекционированием и каталогизацией ссылок, присылаемых и публикуемых на форуме нашими читателями. Если вы являетесь правообладателем какого-либо представленного материала и не желаете чтобы ссылка на него находилась в нашем каталоге, свяжитесь с нами и мы незамедлительно удалим её. Файлы для обмена на трекере предоставлены пользователями сайта, и администрация не несёт ответственности за их содержание. Просьба не заливать файлы, защищенные авторскими правами, а также файлы нелегального содержания!