На всех торрентах на трекере установлена скидка на скачивание в размере 100 процентов(а).
 Возможность скачивания торрента НЕ зависит от ограничений при низком ратио, низком аплоаде, требуемом ратио или требуемом аплоаде.


Начать новую тему Ответить на тему
Статистика раздачи
Размер: 1.37 ГБ | Добавлен: 28 апр 2014, 22:41 | Скачали: 0
Сидеров: 0  [0 байт/сек]    Личеров: 0  [0 байт/сек]
Пред. тема | След. тема 

Автор
Сообщение

СообщениеДобавлено: 28 апр 2014, 22:41 

Ангелы здесь не живут / Angels Don't Sleep Here

Страна: США
Жанр: Триллер, детектив
Год выпуска: 2002
Продолжительность: 01:28:24

Перевод: Профессиональный (двухголосый закадровый)
Cубтитры: нет
Режиссер: Пол Кэйд / Paul Cade

В ролях: Дэна Эшбрук, Келли Разерфорд, Рой Шайдер, Роберт Патрик, Кари Вурер, Чэннон Роу, Гэри Фармер, Кристина Пиклз, Биргит Стейн

Описание: У Майкла много лет назад пропал без вести его брат-близнец Джесси. Его загадочное исчезновение не дает Майклу покоя - он возвращается в родной город и устраивается на работу судебным патологоанатомом. Майкл уверен, что, благодаря полученным знаниям в области судебной медицины и доступе к базе данных местной полиции, ему удается отыскать следы брата и узнать, что же с ним произошло. Однако, вскоре Майкл оказывается втянутым в грязную историю: его обвиняют в убийстве одного из местных жителей, поскольку на месте преступления полиция обнаруживает следы крови, по составу полностью идентичной крови Майкла. Чтобы избежать тюрьмы, Майклу надо срочно выяснить - жив ли его брат, и причастен ли он к этому преступлени...

Доп. информация: Релиз

Сэмпл: http://multi-up.com/583856

Качество видео: DVDRip
Формат видео: AVI

Видео: XviD build 50, 704x528 (1.33:1), 25 fps, 1755 kbps avg
Аудио: AC3 Dolby Digital, 48 kHz, 3/2 (L,C,R,l,r) + LFE ch, 448.00 kbps avg

MediaInfo
General
Complete name : D:\Раздачи\Angely.zdes.ne.zhivut.2002.XviD.DVDRip-Kinozal.TV.avi
Format : AVI
Format/Info : Audio Video Interleave
File size : 1.37 GiB
Duration : 1h 28mn
Overall bit rate : 2 213 Kbps
Writing application : VirtualDubMod 1.5.10.2 (build 2540/release)
Writing library : VirtualDubMod build 2540/release

Video
ID : 0
Format : MPEG-4 Visual
Format profile : AdvancedSimple@L5
Format settings, BVOP : Yes
Format settings, QPel : No
Format settings, GMC : No warppoints
Format settings, Matrix : Default (MPEG)
Codec ID : XVID
Codec ID/Hint : XviD
Duration : 1h 28mn
Bit rate : 1 756 Kbps
Width : 704 pixels
Height : 528 pixels
Display aspect ratio : 4/3
Frame rate : 25.000 fps
Resolution : 24 bits
Colorimetry : 4:2:0
Scan type : Progressive
Bits/(Pixel*Frame) : 0.189
Stream size : 1.08 GiB (79%)
Writing library : XviD 1.2.1 (UTC 2008-12-04)

Audio
ID : 1
Format : AC-3
Format/Info : Audio Coding 3
Codec ID : 2000
Duration : 1h 28mn
Bit rate mode : Constant
Bit rate : 448 Kbps
Channel(s) : 6 channels
Channel positions : Front: L C R, Surround: L R, LFE
Sampling rate : 48.0 KHz
Stream size : 283 MiB (20%)
Alignment : Split accross interleaves
Interleave, duration : 40 ms (1.00 video frame)
Interleave, preload duration : 500 ms


Скриншоты
загрузка...
Правила, инструкции, FAQ!!!
Торрент  Добавлен [28 апр 2014, 22:41] Скачать торрент
Скачать торрент
[ Размер 14.18 КБ / Просмотров 10 ]

Статус  
 
Размер  1.37 ГБ
Приватный: Нет (DHT включён)
.torrent скачан  0
Как залить торрент? | Как скачать Torrent? | Как смотреть и слушать онлайн?  


     Отправить личное сообщение
   
Страница 1 из 1
Показать сообщения за:  Поле сортировки  
Начать новую тему Ответить на тему

   Похожие торренты   Автор   Ответы   Просмотры   Последнее сообщение 
В этой теме нет новых непрочитанных сообщений. Скачать торрент Проверен (Pop) Ульяна КаракоZ (Каракоз) - Ангелы Здесь Больше не Живут - 2008, MP3, 320 kbps

в форуме Отечественная музыка, Размер: 162.95 МБ, Здоровье: 100%

Anonymous

0
3|1

9
0

30 июл 2016, 15:15

Anonymous Перейти к последнему сообщению

В этой теме нет новых непрочитанных сообщений. Скачать торрент Ангелы и Демоны / Angels & Demons (Рон Ховард / Ron Howard) [2009 г., Триллер, детектив, BDRip] [Театральная версия / Theatrical Cut] Dub

в форуме Триллеры, Размер: 2.18 ГБ, Здоровье: 100%

Anonymous

0
20|7

100
0

01 апр 2014, 09:33

Anonymous Перейти к последнему сообщению

В этой теме нет новых непрочитанных сообщений. Скачать торрент Ангелы и Демоны / Angels & Demons (Рон Ховард / Ron Howard) [2009 г., триллер, детектив, BDRip] [расширенная версия / extended edition] Dub (вставки MVO)

в форуме Триллеры, Размер: 2.18 ГБ, Здоровье: 100%

Anonymous

0
34|11

43
0

05 фев 2014, 22:19

Anonymous Перейти к последнему сообщению

В этой теме нет новых непрочитанных сообщений. Скачать торрент Под гипнозом / Doctor Sleep / Close Your Eyes (Ник Уиллинг / Nick Willing) [2002 г., Ужасы, Триллер, Криминал, DVDRip]

в форуме Ужасы, Размер: 1.47 ГБ, Здоровье: 100%

Anonymous

0
18|7

46
2

28 апр 2014, 22:43

Anonymous Перейти к последнему сообщению

В этой теме нет новых непрочитанных сообщений. Скачать торрент Проверен Brown Dan - Angels and Demons (Unabridged) / Браун Дэн - Ангелы и Демоны [Richard Poe, 2004, Детектив / Mystery, 64 kbps]

в форуме Аудиокниги (AAC, ALAC), Размер: 518.35 МБ, Здоровье: 0%

Anonymous

0
0|0

5
0

28 авг 2016, 17:40

Anonymous Перейти к последнему сообщению



Сейчас этот форум просматривают: нет зарегистрированных пользователей и гости: 3


Вы не можете начинать темы
Вы не можете отвечать на сообщения
Вы не можете редактировать свои сообщения
Вы не можете удалять свои сообщения
Вы не можете добавлять вложения

Перейти:  

!ВНИМАНИЕ!
 Ресурс не предоставляет электронные версии произведений, а занимается лишь коллекционированием и каталогизацией ссылок, присылаемых и публикуемых на форуме нашими читателями. Если вы являетесь правообладателем какого-либо представленного материала и не желаете чтобы ссылка на него находилась в нашем каталоге, свяжитесь с нами и мы незамедлительно удалим её. Файлы для обмена на трекере предоставлены пользователями сайта, и администрация не несёт ответственности за их содержание. Просьба не заливать файлы, защищенные авторскими правами, а также файлы нелегального содержания!