На всех торрентах на трекере установлена скидка на скачивание в размере 100 процентов(а).
 Возможность скачивания торрента НЕ зависит от ограничений при низком ратио, низком аплоаде, требуемом ратио или требуемом аплоаде.


Начать новую тему Ответить на тему
Статистика раздачи
Размер: 3.98 ГБ | Добавлен: 26 апр 2014, 20:59 | Скачали: 0
Сидеров: 0  [0 байт/сек]    Личеров: 0  [0 байт/сек]
Пред. тема | След. тема 

Автор
Сообщение

СообщениеДобавлено: 26 апр 2014, 20:59 

Оружейный барон / Lord of War
«Первое правило торговца оружием – не будь подстрелен из своего же собственного товара»
Год выпуска: 2005
Выпущено: США, Франция / Entertainment Manufacturing Company
Жанр: триллер, драма, криминал
Продолжительность: 02:01:43
Перевод: Дублированный + Профессиональный (двухголосый / Tycoon) + Профессиональный (двухголосый / П.Гланц, И.Королёва) + Английский (оригинал)
Режиссер: Эндрю Никкол / Andrew Niccol
В ролях: Николас Кейдж, Бриджет Мойнэхэн, Джаред Лето, Иэн Холм, Этан Хоук, Сэмми Ротиби, Имонн Уолкер, Дэвид Хармен, Евгений Лазарев, Джаспер Ленц


Сюжет: Родители братьев Орловых, старшего Юрия и младшего Виталия, покинули Украину и обосновались в Америке, на Брайтон-Бич, где открыли маленький ресторанчик. Дети же не рвались идти по родительским стопам. Юрий, раздумывая, чем заниматься, пришел к выводу: самое выгодное — торговать оружием. Потому что в мире, переполненном агрессией, оружие никогда не бывает лишним. Оно нужно и родственникам, дерущимся друг с другом, и конкурирующим бандам, и враждующим государствам.
Юрий Орлов, опираясь на младшего брата Виталия, быстро завоевывает свое место под солнцем и надеется в скором времени стать таким же крутым «продавцом смерти», как его кумир Симеон Вайс. Но чем выше поднимается Юрий, тем ближе к нему подбирается агент Интерпола Джек Валентайн…


IMDB / КиноПоиск / Сэмпл


Качество видео: BDRip-AVC
Формат: MKV
Видео кодек: H.264
Аудио кодек: AC3
Видео: H.264, 1088 x 452, 23.976 fps, ~2885 Кбит/с
Аудио #1: AC3, 448 Кбит/с, 48 kHz (6 ch) Russian R5

Аудио #2: AC3, 448 Кбит/с, 48 kHz (6 ch) Russian / Tycoon / отдельно
Аудио #3: AC3, 448 Кбит/с, 48 kHz (6 ch) Russian / П.Гланц, И.Королёва / отдельно
Аудио #4: AC3, 448 Кбит/с, 48 kHz (6 ch) English
Cубтитры: Русские, Английские


Скриншоты


MediaInfo / x264
x264
avs [info]: 1088x452p 1:1 @ 24000/1001 fps (cfr)
x264 [info]: using SAR=1/1
x264 [info]: using cpu capabilities: MMX2 SSE2Fast SSSE3 Cache64
x264 [info]: profile High, level 4.0

x264 [info]: frame I:1625 Avg QP:17.86 size: 64580
x264 [info]: frame P:34647 Avg QP:19.49 size: 30163
x264 [info]: frame B:138830 Avg QP:21.86 size: 10688
x264 [info]: consecutive B-frames: 1.5% 1.5% 5.7% 10.8% 11.8% 53.6% 6.0% 1.4% 5.4% 1.4% 0.9%
x264 [info]: mb I I16..4: 13.0% 70.3% 16.7%
x264 [info]: mb P I16..4: 1.5% 16.2% 2.0% P16..4: 41.1% 25.8% 4.7% 0.4% 0.3% skip: 8.1%
x264 [info]: mb B I16..4: 0.0% 1.8% 0.2% B16..8: 42.1% 12.0% 3.6% direct: 7.0% skip:33.2% L0:43.9% L1:46.9% BI: 9.2%
x264 [info]: 8x8 transform intra:82.1% inter:57.7%
x264 [info]: direct mvs spatial:100.0% temporal:0.0%
x264 [info]: coded y,uvDC,uvAC intra: 92.3% 78.4% 52.7% inter: 29.2% 23.3% 6.4%
x264 [info]: i16 v,h,dc,p: 29% 11% 27% 33%
x264 [info]: i8 v,h,dc,ddl,ddr,vr,hd,vl,hu: 10% 8% 14% 9% 12% 11% 12% 10% 13%
x264 [info]: i4 v,h,dc,ddl,ddr,vr,hd,vl,hu: 30% 7% 5% 7% 11% 10% 11% 9% 10%
x264 [info]: i8c dc,h,v,p: 44% 26% 17% 13%
x264 [info]: Weighted P-Frames: Y:2.5% UV:1.4%
x264 [info]: ref P L0: 40.3% 8.8% 20.5% 6.5% 7.0% 4.1% 4.5% 2.0% 2.4% 1.6% 2.1% 0.3% 0.0%
x264 [info]: ref B L0: 66.9% 13.5% 6.8% 3.8% 2.6% 2.4% 1.8% 1.2% 0.7% 0.4%
x264 [info]: ref B L1: 92.1% 7.9%
x264 [info]: SSIM Mean Y:0.9673672 (14.863db)
x264 [info]: kb/s:2885.05

x264 [total]: encoded 175102 frames, 1.55 fps, 2885.05 kb/s
General
Complete name : D:\VIDEO\Lord.of.War.BDRip-AVC\Lord.of.War.2005.BDRip-AVC.mkv
Format : Matroska
File size : 3.22 GiB
Duration : 2h 1mn
Overall bit rate : 3 783 Kbps
Encoded date : UTC 2010-11-30 07:02:08
Writing application : mkvmerge v3.4.0 ('Rapunzel') built on May 15 2010 09:38:20
Writing library : libebml v0.8.0 + libmatroska v0.9.0

Video
ID : 1
Format : AVC
Format/Info : Advanced Video Codec
Format profile : High@L4.0
Format settings, CABAC : Yes
Format settings, ReFrames : 11 frames
Codec ID : V_MPEG4/ISO/AVC
Duration : 2h 1mn
Bit rate : 2 812 Kbps
Width : 1 088 pixels
Height : 452 pixels
Display aspect ratio : 2.40:1
Frame rate : 23.976 fps
Color space : YUV
Chroma subsampling : 4:2:0
Bit depth : 8 bits
Scan type : Progressive
Bits/(Pixel*Frame) : 0.238
Stream size : 2.39 GiB (74%)
Title : Lord of War
Writing library : x264 core 110 r1804 e89c4cf
Encoding settings : cabac=1 / ref=11 / deblock=1:-2:-1 / analyse=0x3:0x133 / me=umh / subme=10 / psy=1 / psy_rd=1.00:0.10 / mixed_ref=1 / me_range=32 / chroma_me=0 / trellis=2 / 8x8dct=1 / cqm=0 / deadzone=21,11 / fast_pskip=0 / chroma_qp_offset=-3 / threads=3 / sliced_threads=0 / nr=0 / decimate=0 / interlaced=0 / constrained_intra=0 / bframes=10 / b_pyramid=2 / b_adapt=2 / b_bias=0 / direct=3 / weightb=1 / open_gop=0 / weightp=2 / keyint=250 / keyint_min=23 / scenecut=40 / intra_refresh=0 / rc_lookahead=40 / rc=crf / mbtree=0 / crf=19.6 / qcomp=0.65 / qpmin=0 / qpmax=51 / qpstep=4 / vbv_maxrate=25000 / vbv_bufsize=31250 / crf_max=0.0 / ip_ratio=1.40 / pb_ratio=1.30 / aq=1:1.00 / nal_hrd=none
Language : English

Audio #1
ID : 2
Format : AC-3
Format/Info : Audio Coding 3
Mode extension : CM (complete main)
Codec ID : A_AC3
Duration : 2h 1mn
Bit rate mode : Constant
Bit rate : 448 Kbps
Channel(s) : 6 channels
Channel positions : Front: L C R, Side: L R, LFE
Sampling rate : 48.0 KHz
Bit depth : 16 bits
Stream size : 390 MiB (12%)
Title : Дубляж
Language : Russian

Audio #2
ID : 3
Format : AC-3
Format/Info : Audio Coding 3
Mode extension : CM (complete main)
Codec ID : A_AC3
Duration : 2h 1mn
Bit rate mode : Constant
Bit rate : 448 Kbps
Channel(s) : 6 channels
Channel positions : Front: L C R, Side: L R, LFE
Sampling rate : 48.0 KHz
Bit depth : 16 bits
Stream size : 390 MiB (12%)
Title : Английский
Language : English

Text #1
ID : 4
Format : UTF-8
Codec ID : S_TEXT/UTF8
Codec ID/Info : UTF-8 Plain Text
Title : Русские (R5)
Language : Russian

Text #2
ID : 5
Format : UTF-8
Codec ID : S_TEXT/UTF8
Codec ID/Info : UTF-8 Plain Text
Title : Русские (Tycoon)
Language : Russian

Text #3
ID : 6
Format : UTF-8
Codec ID : S_TEXT/UTF8
Codec ID/Info : UTF-8 Plain Text
Title : Английские
Language : English

Menu
00:00:00.000 : en:Chapter 1
00:09:16.847 : en:Chapter 2
00:18:29.691 : en:Chapter 3
00:28:53.523 : en:Chapter 4
00:39:34.538 : en:Chapter 5
00:52:09.918 : en:Chapter 6
01:00:29.792 : en:Chapter 7
01:08:51.377 : en:Chapter 8
01:18:14.731 : en:Chapter 9
01:30:43.604 : en:Chapter 10
01:40:02.871 : en:Chapter 11
01:56:00.203 : en:Chapter 12
02:01:42.545 : en:Chapter 13
загрузка...
Правила, инструкции, FAQ!!!
Торрент  Добавлен [26 апр 2014, 20:59] Скачать торрент
Скачать торрент
[ Размер 20.56 КБ / Просмотров 17 ]

Статус  
 
Размер  3.98 ГБ
Приватный: Нет (DHT включён)
.torrent скачан  0
Как залить торрент? | Как скачать Torrent? | Как смотреть и слушать онлайн?  


     Отправить личное сообщение
   
Страница 1 из 1
Показать сообщения за:  Поле сортировки  
Начать новую тему Ответить на тему

   Похожие торренты   Автор   Ответы   Просмотры   Последнее сообщение 
В этой теме нет новых непрочитанных сообщений. Скачать торрент Оружейный барон / Lord of War (Эндрю Никкол / Andrew Niccol) [2005 г., триллер, драма, криминал, HDRip] Dub

в форуме Триллеры, Размер: 745.64 МБ, Здоровье: 0%

Anonymous

0
0|0

59
0

25 апр 2014, 08:55

Anonymous Перейти к последнему сообщению

В этой теме нет новых непрочитанных сообщений. Скачать торрент [VIDEO] Оружейный барон / Lord of War (Эндрю Никкол / Andrew Niccol) [2005, триллер, драма, криминал, HDRip] [MP4, 640x] Dub

в форуме Видео для смартфонов и КПК, Размер: 1.03 ГБ, Здоровье: 100%

Anonymous

0
5|1

79
0

30 янв 2014, 06:46

Anonymous Перейти к последнему сообщению

В этой теме нет новых непрочитанных сообщений. Скачать торрент Оружейный барон / Lord of War (Эндрю Никкол) [2005 г., Боевик / Триллер, HDTV, 1080p]

в форуме 720p | 1080p, Размер: 19.45 ГБ, Здоровье: 0%

Anonymous

0
0|0

59
0

25 фев 2014, 22:42

Anonymous Перейти к последнему сообщению

В этой теме нет новых непрочитанных сообщений. Скачать торрент Проверен [iPhone] Время / In Time (Эндрю Никкол / Andrew Niccol) [2011 г., фантастика, триллер, драма, мелодрама, криминал, BDRip, 480x200]

в форуме Фильмы для iPod, iPhone, iPad, Размер: 553.43 МБ, Здоровье: 100%

Anonymous

0
5|1

52
0

11 май 2015, 01:42

Anonymous Перейти к последнему сообщению

В этой теме нет новых непрочитанных сообщений. Скачать торрент Проверен [iPad] Время / In Time (Эндрю Никкол/ Andrew Niccol) [2011, США, Фантастика, триллер, криминал, BDRip, 576p] Dub + Original + rus sub

в форуме Фильмы для iPod, iPhone, iPad, Размер: 1.89 ГБ, Здоровье: 100%

Anonymous

0
12|4

46
0

11 май 2015, 01:42

Anonymous Перейти к последнему сообщению



Сейчас этот форум просматривают: нет зарегистрированных пользователей и гости: 1


Вы не можете начинать темы
Вы не можете отвечать на сообщения
Вы не можете редактировать свои сообщения
Вы не можете удалять свои сообщения
Вы не можете добавлять вложения

Перейти:  

!ВНИМАНИЕ!
 Ресурс не предоставляет электронные версии произведений, а занимается лишь коллекционированием и каталогизацией ссылок, присылаемых и публикуемых на форуме нашими читателями. Если вы являетесь правообладателем какого-либо представленного материала и не желаете чтобы ссылка на него находилась в нашем каталоге, свяжитесь с нами и мы незамедлительно удалим её. Файлы для обмена на трекере предоставлены пользователями сайта, и администрация не несёт ответственности за их содержание. Просьба не заливать файлы, защищенные авторскими правами, а также файлы нелегального содержания!