На всех торрентах на трекере установлена скидка на скачивание в размере 100 процентов(а).
 Возможность скачивания торрента НЕ зависит от ограничений при низком ратио, низком аплоаде, требуемом ратио или требуемом аплоаде.


Начать новую тему Ответить на тему
Статистика раздачи
Размер: 1.46 ГБ | Добавлен: 25 апр 2014, 08:54 | Скачали: 0
Сидеров: 0  [0 байт/сек]    Личеров: 0  [0 байт/сек]
Пред. тема | След. тема 

Автор
Сообщение

СообщениеДобавлено: 25 апр 2014, 08:54 

Год выпуска: 2002
Выпущено: США, Германия / Universal Pictures
Жанр: триллер, драма, детектив
Продолжительность: 02:04:26
Перевод: Профессиональный (полное дублирование)
BD CEE
Cубтитры: нет
Режиссер:
Бретт Рэтнер / Brett Ratner
В ролях:
Энтони Хопкинс (Dr. Hannibal Lecter), Эдвард Нортон (Will Graham), Рэйф Файнс (Francis Dolarhyde), Харви Кейтель (Jack Crawford), Эмили Уотсон (Reba McClane), Мэри-Луиз Паркер (Molly Graham), Филип Сеймур Хоффман (Freddy Lounds), Энтони Хилд (Dr. Frederick Chilton), Кен Люн (Lloyd Bowman)
Описание:
Действие этой ленты разворачивается до событий, описанных в «Молчании ягнят» и до появления Клариссы Старлинг. Мы знакомимся с человеком, поймавшим Ганнибала Лектера, — специальным агентом ФБР Уиллом Грэмом. После ареста Лектера, который едва не стоил Грэму жизни, Уилл уходит со службы в Бюро.
Однако появление нового жуткого серийного убийцы заставляет Грэма вернуться на службу. Этот безжалостный монстр, которого пресса уже окрестила «Зубной Феей», ночами вырезает целые семейства. Теперь Уиллу нужен совет от опытного специалиста по психическим аномалиям, и он обращается за помощью к своему старому знакомому… доктору «Ганнибалу-каннибалу» Лектеру!
IMDB | КиноПоиск |
Качество: BDRip
Формат: AVI

Видео: 720x304 (2.37:1), 23.976 fps, XviD build 73 ~1285 kbps avg, 0.25 bit/pixel
Аудио: 48 kHz, AC3 Dolby Digital, 3/2 (L,C,R,l,r) + LFE ch, ~384.00 kbps avg
Скриншоты
MediaInfo
Код:
Код:
General
Complete name                            : D:\Krasnyi_drakon_2002_BDRip_by_Dalemake.avi
Format                                   : AVI
Format/Info                              : Audio Video Interleave
File size                                : 1.46 GiB
Duration                                 : 2h 4mn
Overall bit rate                         : 1 679 Kbps
Writing application                      : VirtualDubMod 1.5.10.3 | www.virtualdub-fr.org || (build 2550/release)
Writing library                          : VirtualDubMod build 2550/release

Video
ID                                       : 0
Format                                   : MPEG-4 Visual
Format profile                           : Advanced Simple@L5
Format settings, BVOP                    : 1
Format settings, QPel                    : No
Format settings, GMC                     : No warppoints
Format settings, Matrix                  : Custom
Codec ID                                 : XVID
Codec ID/Hint                            : XviD
Duration                                 : 2h 4mn
Bit rate                                 : 1 286 Kbps
Width                                    : 720 pixels
Height                                   : 304 pixels
Display aspect ratio                     : 2.35:1
Frame rate                               : 23.976 fps
Color space                              : YUV
Chroma subsampling                       : 4:2:0
Bit depth                                : 8 bits
Scan type                                : Progressive
Compression mode                         : Lossy
Bits/(Pixel*Frame)                       : 0.245
Stream size                              : 1.12 GiB (77%)
Writing library                          : XviD 73

Audio
ID                                       : 1
Format                                   : AC-3
Format/Info                              : Audio Coding 3
Mode extension                           : CM (complete main)
Format settings, Endianness              : Big
Codec ID                                 : 2000
Duration                                 : 2h 4mn
Bit rate mode                            : Constant
Bit rate                                 : 384 Kbps
Channel(s)                               : 6 channels
Channel positions                        : Front: L C R, Side: L R, LFE
Sampling rate                            : 48.0 KHz
Bit depth                                : 16 bits
Compression mode                         : Lossy
Stream size                              : 342 MiB (23%)
Alignment                                : Split accross interleaves
Interleave, duration                     : 42 ms (1.00 video frame)
Interleave, preload duration             : 500 ms
загрузка...
Правила, инструкции, FAQ!!!
Торрент  Добавлен [25 апр 2014, 08:54] Скачать торрент
Скачать торрент
[ Размер 15.21 КБ / Просмотров 19 ]

Статус  
 
Размер  1.46 ГБ
Приватный: Нет (DHT включён)
.torrent скачан  0
Как залить торрент? | Как скачать Torrent? | Как смотреть и слушать онлайн?  


     Отправить личное сообщение
   
Страница 1 из 1
Показать сообщения за:  Поле сортировки  
Начать новую тему Ответить на тему

   Похожие торренты   Автор   Ответы   Просмотры   Последнее сообщение 
В этой теме нет новых непрочитанных сообщений. Скачать торрент После заката / After the Sunset (Бретт Рэтнер / Brett Ratner) [2004 г., боевик, криминальная комедия, драма, BDRip-AVC] Dub

в форуме Боевики, Размер: 2.4 ГБ, Здоровье: 100%

Anonymous

0
8|2

45
0

22 апр 2014, 11:51

Anonymous Перейти к последнему сообщению

В этой теме нет новых непрочитанных сообщений. Скачать торрент Люди Икс: Последняя битва / X-Men: The Last Stand (Бретт Рэтнер / Brett Ratner) [2006, США, Канада, Великобритания, Фантастический комикс, BDRip] Dub

в форуме Фантастика, Фэнтези, Размер: 1.78 ГБ, Здоровье: 100%

Anonymous

0
27|9

48
0

19 апр 2014, 18:49

Anonymous Перейти к последнему сообщению

В этой теме нет новых непрочитанных сообщений. Скачать торрент Проверен [iPad] Как украсть небоскреб / Tower Heist (Бретт Рэтнер / Brett Ratner ) [2011, США, Боевик, комедия, криминал, BDRip, SD (576p)] DUB + Original + sub (rus, eng)

в форуме Фильмы для iPod, iPhone, iPad, Размер: 1.8 ГБ, Здоровье: 100%

Гость

0
20|7

28
0

11 май 2015, 01:39

Гость Перейти к последнему сообщению

В этой теме нет новых непрочитанных сообщений. Скачать торрент Час пик 2 / Rush Hour 2 (Бретт Рэтнер / Brett Ratner) [2001, США, Гонконг, Комедия, Боевик, HDRip]

в форуме Комедии, Размер: 1.32 ГБ, Здоровье: 100%

Anonymous

0
8|2

49
0

24 апр 2014, 14:06

Anonymous Перейти к последнему сообщению

В этой теме нет новых непрочитанных сообщений. Скачать торрент Проверен [iPhone] Как украсть небоскреб / Tower Heist (Бретт Рэтнер / Bratt Ratner) [2011, комедия, криминал, BDRip, 720x320] Rus + Eng + Eng Subs

в форуме Фильмы для iPod, iPhone, iPad, Размер: 1.07 ГБ, Здоровье: 100%

Гость

0
5|2

35
0

18 май 2015, 10:37

Гость Перейти к последнему сообщению



Сейчас этот форум просматривают: нет зарегистрированных пользователей и гости: 1


Вы не можете начинать темы
Вы не можете отвечать на сообщения
Вы не можете редактировать свои сообщения
Вы не можете удалять свои сообщения
Вы не можете добавлять вложения

Перейти:  

!ВНИМАНИЕ!
 Ресурс не предоставляет электронные версии произведений, а занимается лишь коллекционированием и каталогизацией ссылок, присылаемых и публикуемых на форуме нашими читателями. Если вы являетесь правообладателем какого-либо представленного материала и не желаете чтобы ссылка на него находилась в нашем каталоге, свяжитесь с нами и мы незамедлительно удалим её. Файлы для обмена на трекере предоставлены пользователями сайта, и администрация не несёт ответственности за их содержание. Просьба не заливать файлы, защищенные авторскими правами, а также файлы нелегального содержания!