На всех торрентах на трекере установлена скидка на скачивание в размере 100 процентов(а).
 Возможность скачивания торрента НЕ зависит от ограничений при низком ратио, низком аплоаде, требуемом ратио или требуемом аплоаде.


Начать новую тему Ответить на тему
Статистика раздачи
Размер: 1.46 ГБ | Добавлен: 22 апр 2014, 11:49 | Скачали: 1
Сидеров: 36  [0 байт/сек]    Личеров: 12  [0 байт/сек]
Пред. тема | След. тема 

Автор
Сообщение

СообщениеДобавлено: 22 апр 2014, 11:49 

Одержимость / Wicker Park

Страна: США
Жанр: триллер, драма, мелодрама, детектив
Год выпуска: 2004
Продолжительность: 01:54:51

Перевод: Профессиональный (двухголосый закадровый) Tycoon-studio
Cубтитры: нет
Режиссер: Пол МакГиган / Paul McGuigan

В ролях: Джош Хартнетт, Роуз Бирн, Мэттью Лиллард, Дайан Крюгер, Кристофер Казинс, Джессика Паре, Власта Врана, Эми Собол, Тед Уиттэлл, Изабель Дос Сантос

Описание: Накануне важной деловой поездки молодой преуспевающий финансист Мэтью замечает в ресторане свою бывшую возлюбленную Лизу, которая таинственным образом исчезла два года назад и страстью к которой он все еще одержим. Забыв обо всем, Мэтью ступает на путь обмана и подозрений, чтобы выследить ее.

Пытаясь решить головоломку с помощью загадочных улик, он случайно знакомится с другой девушкой — ее тоже зовут Лиза и, возможно, ей известна тайна странного исчезновения. Мэтью не предполагает, что любовная одержимость уже сделала его жертвой виртуозной интриги, в которой каждая деталь была предусмотрена с дьявольской точностью…
Качество видео: DVDRip
Формат видео: AVI

Видео: XviD, 720x320 (2.25:1), 1685 Kbps, 23.976 fps
Аудио: Russian (DVO Tycoon-studio)
: MP3 2.0, 48 KHz, 128 Kbps
MediaInfo
General
Complete name : Q:\torrent\DVD\Release\Wicker Park. DVDRip1495.avi
Format : AVI
Format/Info : Audio Video Interleave
File size : 1.46 GiB
Duration : 1h 54mn
Overall bit rate : 1 820 Kbps
Writing application : VirtualDubMod 1.5.4.1 (build 2178/release)
Writing library : VirtualDubMod build 2178/release

Video
ID : 0
Format : MPEG-4 Visual
Format profile : Advanced Simple@L5
Format settings, BVOP : No
Format settings, QPel : No
Format settings, GMC : No warppoints
Format settings, Matrix : Custom
Codec ID : XVID
Codec ID/Hint : XviD
Duration : 1h 54mn
Bit rate : 1 685 Kbps
Width : 720 pixels
Height : 320 pixels
Display aspect ratio : 2.25:1
Frame rate : 23.976 fps
Color space : YUV
Chroma subsampling : 4:2:0
Bit depth : 8 bits
Scan type : Progressive
Compression mode : Lossy
Bits/(Pixel*Frame) : 0.305
Stream size : 1.35 GiB (93%)
Writing library : XviD 1.2.1 (UTC 2008-12-04)

Audio
ID : 1
Format : MPEG Audio
Format version : Version 1
Format profile : Layer 3
Mode : Joint stereo
Mode extension : MS Stereo
Codec ID : 55
Codec ID/Hint : MP3
Duration : 1h 54mn
Bit rate mode : Constant
Bit rate : 128 Kbps
Channel(s) : 2 channels
Sampling rate : 48.0 KHz
Compression mode : Lossy
Stream size : 105 MiB (7%)
Alignment : Aligned on interleaves
Interleave, duration : 83 ms (2.00 video frames)
Interleave, preload duration : 504 ms
Writing library : LAME3.98r
Encoding settings : -m j -V 4 -q 2 -lowpass 17 -b 128


Скриншоты
загрузка...
Правила, инструкции, FAQ!!!
Торрент  Добавлен [22 апр 2014, 11:49] Скачать торрент
Скачать торрент
[ Размер 15.2 КБ / Просмотров 13 ]

Статус  
 
Размер  1.46 ГБ
Приватный: Нет (DHT включён)
.torrent скачан  1
Как залить торрент? | Как скачать Torrent? | Как смотреть и слушать онлайн?  


     Отправить личное сообщение
   
Страница 1 из 1
Показать сообщения за:  Поле сортировки  
Начать новую тему Ответить на тему

   Похожие торренты   Автор   Ответы   Просмотры   Последнее сообщение 
В этой теме нет новых непрочитанных сообщений. Скачать торрент Одержимость / Уикер-парк / Wicker Park (Пол МакГиган / Paul McGuigan) [2004 , США , триллер, драма, мелодрама , HDTVRip-AVC] Dub

в форуме Триллеры, Размер: 2.18 ГБ, Здоровье: 100%

Anonymous

0
56|19

38
0

22 апр 2014, 11:51

Anonymous Перейти к последнему сообщению

В этой теме нет новых непрочитанных сообщений. Скачать торрент Счастливое число Слевина / Lucky Number Slevin (Пол МакГиган / Paul McGuigan) [2006 г., триллер, драма, криминал, BDRip] Dub

в форуме Триллеры, Размер: 1.46 ГБ, Здоровье: 100%

Anonymous

0
56|20

45
0

04 фев 2014, 21:25

Anonymous Перейти к последнему сообщению

В этой теме нет новых непрочитанных сообщений. Скачать торрент Плетеное дерево / The Wicker Tree (Робин Харди / Robin Hardy) [2010, Великобритания, Ужасы, триллер, драма, детектив, HDRip] DVO + Original (eng)

в форуме Ужасы, Размер: 1.37 ГБ, Здоровье: 0%

Anonymous

0
0|0

70
0

19 фев 2014, 11:43

Anonymous Перейти к последнему сообщению

В этой теме нет новых непрочитанных сообщений. Скачать торрент Детектив / Detective (Дэвид С. Касс ст. / David S. Cass Sr.) [2005, США, Триллер, Детектив, Драма, DVDRip]

в форуме Детективы, Размер: 1.46 ГБ, Здоровье: 100%

Anonymous

0
20|3

202
4

22 апр 2014, 11:42

Anonymous Перейти к последнему сообщению

В этой теме нет новых непрочитанных сообщений. Скачать торрент Слепота / Blindness (Фернанду Мейреллиш / Fernando Meirelles) [2008 г., триллер, мелодрама, драма, детектив, HDRip]

в форуме Триллеры, Размер: 745.98 МБ, Здоровье: 0%

Anonymous

0
0|0

85
0

02 апр 2014, 08:21

Anonymous Перейти к последнему сообщению



Сейчас этот форум просматривают: нет зарегистрированных пользователей и гости: 1


Вы не можете начинать темы
Вы не можете отвечать на сообщения
Вы не можете редактировать свои сообщения
Вы не можете удалять свои сообщения
Вы не можете добавлять вложения

Перейти:  

!ВНИМАНИЕ!
 Ресурс не предоставляет электронные версии произведений, а занимается лишь коллекционированием и каталогизацией ссылок, присылаемых и публикуемых на форуме нашими читателями. Если вы являетесь правообладателем какого-либо представленного материала и не желаете чтобы ссылка на него находилась в нашем каталоге, свяжитесь с нами и мы незамедлительно удалим её. Файлы для обмена на трекере предоставлены пользователями сайта, и администрация не несёт ответственности за их содержание. Просьба не заливать файлы, защищенные авторскими правами, а также файлы нелегального содержания!