На всех торрентах на трекере установлена скидка на скачивание в размере 100 процентов(а).
 Возможность скачивания торрента НЕ зависит от ограничений при низком ратио, низком аплоаде, требуемом ратио или требуемом аплоаде.


Начать новую тему Ответить на тему
Статистика раздачи
Размер: 2.05 ГБ | Добавлен: 20 апр 2014, 23:11 | Скачали: 0
Сидеров: 0  [0 байт/сек]    Личеров: 0  [0 байт/сек]
Пред. тема | След. тема 

Автор
Сообщение

СообщениеДобавлено: 20 апр 2014, 23:11 

Тату / Tattoo (2002) BDRip-AVC


Название: Тату
Оригинальное название: Tattoo
Год выхода: 2002
Жанр: триллер, драма, криминал
Режиссер: Роберт Швентке

В ролях: Аугуст Диль, Кристиан Редль, Надежда Бреннике, Йохан Лейзен, Фатих Севикколлу, Моника Бляйбтрой, Илькнул Бахадыр, Джо Бауш, Флориан Панцнер, Джасмин Швирс, Гюстав-Петер Волер, Инго Науёкс, Кристин Шеда, Ванда Перделвиц, Лорелей Махони

О фильме: Выпускник полицейской школы Марк начинает работать в убойном отделе под руководствам комиссара Минкса. И с первого же дня Марк начинает принимать участие в расследовании весьма необычного дела. Неизвестный серийный убийца сдирает татуированную кожу со своих жертв и за большие суммы продает ее любителям запретной экзотики.

С помощью приехавшей из Нью-Йорка Майи, подруги одной из убитых, полицейские нападают на след. Но каждый, кто пытается отыскать таинственного преступника-садиста, оказывается затянут в жуткий кровавый водоворот извращенных страстей, а в конце пути его поджидает мучительная смерть.



Страна: Германия
Продолжительность: 01:48:54
Перевод: Профессиональный (двухголосый закадровый)


Кодек: x.264
Качество: BDRip-AVC
Видео: 1024x432 (2,40:1), 23,976 fps, 2249 kbps, 0.212 bit/pixel
Звук: 48 kHz, AC3 Dolby Digital, 6 ch, ~448.00 kbps

&

Общее
Уникальный идентификатор : 187431674475830181551088619762259168057 (0x8D0207064E34E4549D76257CEEE58B39)
Полное имя : D:Tattoo.2002.BDRip-AVC.mkv
Формат : Matroska
Версия формата : Version 4 / Version 2
Размер файла : 2,05 Гбайт
Продолжительность : 1 ч. 48 м.
Общий поток : 2699 Кбит/сек
Название фильма : Тату / Tattoo (2002) BDRip-AVC rip by Rulya74
Дата кодирования : UTC 2014-04-20 17:37:53
Программа кодирования : mkvmerge v6.5.0 ('Isn't she lovely') built on Oct 20 2013 12:50:05
Библиотека кодирования : libebml v1.3.0 + libmatroska v1.4.1

Видео
Идентификатор : 1
Формат : AVC
Формат/Информация : Advanced Video Codec
Профиль формата : High@L4.1
Параметр CABAC формата : Да
Параметр ReFrames формата : 10 кадров
Идентификатор кодека : V_MPEG4/ISO/AVC
Продолжительность : 1 ч. 48 м.
Битрейт : 2249 Кбит/сек
Ширина : 1024 пикселя
Высота : 432 пикселя
Соотношение сторон : 2,40:1
Режим частоты кадров : Постоянный
Частота кадров : 23,976 кадра/сек
Цветовое пространство : YUV
Субдискретизация насыщенности : 4:2:0
Битовая глубина : 8 бит
Тип развёртки : Прогрессивная
Бит/(Пиксели*Кадры) : 0.212
Размер потока : 1,67 Гбайт (81%)
Библиотека кодирования : x264 core 138 r2358 9e941d1
Настройки программы : cabac=1 / ref=10 / deblock=1:-1:-1 / analyse=0x3:0x113 / me=umh / subme=11 / psy=1 / psy_rd=1.06:0.01 / mixed_ref=1 / me_range=48 / chroma_me=1 / trellis=2 / 8x8dct=1 / cqm=0 / deadzone=21,11 / fast_pskip=0 / chroma_qp_offset=-3 / threads=4 / lookahead_threads=1 / sliced_threads=0 / nr=0 / decimate=1 / interlaced=0 / bluray_compat=0 / constrained_intra=0 / bframes=11 / b_pyramid=2 / b_adapt=2 / b_bias=0 / direct=1 / weightb=1 / open_gop=0 / weightp=2 / keyint=240 / keyint_min=23 / scenecut=40 / intra_refresh=0 / rc_lookahead=40 / rc=2pass / mbtree=1 / bitrate=2249 / ratetol=1.0 / qcomp=0.60 / qpmin=0 / qpmax=69 / qpstep=4 / cplxblur=20.0 / qblur=0.5 / vbv_maxrate=62500 / vbv_bufsize=78125 / nal_hrd=none / ip_ratio=1.40 / aq=1:1.00
Default : Да
Forced : Нет

Аудио
Идентификатор : 2
Формат : AC-3
Формат/Информация : Audio Coding 3
Расширение режима : CM (complete main)
Параметр Endianness формата : Big
Идентификатор кодека : A_AC3
Продолжительность : 1 ч. 48 м.
Вид битрейта : Постоянный
Битрейт : 448 Кбит/сек
Каналы : 6 каналов
Расположение каналов : Front: L C R, Side: L R, LFE
Частота : 48,0 КГц
Битовая глубина : 16 бит
Метод сжатия : С потерями
Размер потока : 349 Мбайт (17%)
Заголовок : Профессиональный (двухголосый закадровый)
Язык : Russian
Default : Да
Forced : Нет

загрузка...
Правила, инструкции, FAQ!!!
Торрент  Добавлен [20 апр 2014, 23:11] Скачать торрент
Скачать торрент
[ Размер 10.76 КБ / Просмотров 7 ]

Статус  
 
Размер  2.05 ГБ
Приватный: Нет (DHT включён)
.torrent скачан  0
Как залить торрент? | Как скачать Torrent? | Как смотреть и слушать онлайн?  


     Отправить личное сообщение
   
Страница 1 из 1
Показать сообщения за:  Поле сортировки  
Начать новую тему Ответить на тему

   Похожие торренты   Автор   Ответы   Просмотры   Последнее сообщение 
В этой теме нет новых непрочитанных сообщений. Скачать торрент Тату / Tattoo (2002) DVDRip

в форуме Триллеры, Размер: 1.37 ГБ, Здоровье: 0%

Anonymous

0
0|0

59
1

20 апр 2014, 23:13

Anonymous Перейти к последнему сообщению

В этой теме нет новых непрочитанных сообщений. Скачать торрент Тату / Tattoo (Роберт Швентке / Robert Schwentke) [2002, Германия, триллер, DVDRip]

в форуме Триллеры, Размер: 1.46 ГБ, Здоровье: 100%

Anonymous

0
2|1

50
0

22 апр 2014, 11:38

Anonymous Перейти к последнему сообщению

В этой теме нет новых непрочитанных сообщений. Скачать торрент Проверен Дикая река / The River Wild (1994) BDRip от Rulya74

в форуме Триллеры, Размер: 1.45 ГБ, Здоровье: 100%

Гость

0
16|2

64
97

03 янв 2015, 17:18

Гость Перейти к последнему сообщению

В этой теме нет новых непрочитанных сообщений. Скачать торрент Проверен (Hard Rock) Rose Tattoo - Rose Tattoo (Limited Edition 1990) - 1978, FLAC (tracks), lossless

в форуме Classic Rock & Hard Rock, Размер: 466.96 МБ, Здоровье: 0%

Anonymous

0
0|0

6
0

04 сен 2016, 18:10

Anonymous Перейти к последнему сообщению

В этой теме нет новых непрочитанных сообщений. Скачать торрент Проверен (Psyhedelic/Blues) Mint Tattoo(Blue Cheer)-Mint Tattoo - 1968, MP3 (tracks), 320 kbps

в форуме Classic Rock & Hard Rock, Размер: 90.46 МБ, Здоровье: 0%

Anonymous

0
0|0

0
0

14 ноя 2016, 19:38

Anonymous Перейти к последнему сообщению



Сейчас этот форум просматривают: нет зарегистрированных пользователей и гости: 1


Вы не можете начинать темы
Вы не можете отвечать на сообщения
Вы не можете редактировать свои сообщения
Вы не можете удалять свои сообщения
Вы не можете добавлять вложения

Перейти:  

!ВНИМАНИЕ!
 Ресурс не предоставляет электронные версии произведений, а занимается лишь коллекционированием и каталогизацией ссылок, присылаемых и публикуемых на форуме нашими читателями. Если вы являетесь правообладателем какого-либо представленного материала и не желаете чтобы ссылка на него находилась в нашем каталоге, свяжитесь с нами и мы незамедлительно удалим её. Файлы для обмена на трекере предоставлены пользователями сайта, и администрация не несёт ответственности за их содержание. Просьба не заливать файлы, защищенные авторскими правами, а также файлы нелегального содержания!