На всех торрентах на трекере установлена скидка на скачивание в размере 100 процентов(а).
 Возможность скачивания торрента НЕ зависит от ограничений при низком ратио, низком аплоаде, требуемом ратио или требуемом аплоаде.


Начать новую тему Ответить на тему
Статистика раздачи
Размер: 1.46 ГБ | Добавлен: 10 янв 2013, 17:53 | Скачали: 0
Сидеров: 0  [0 байт/сек]    Личеров: 0  [0 байт/сек]
Пред. тема | След. тема 

Автор
Сообщение

СообщениеДобавлено: 10 янв 2013, 17:53 

Название: Страх воды
Оригинальное название: La peur de l'eau
Год выпуска: 2011
Страна: Канада
Жанр: Триллер, детектив
Продолжительность: ~ 02:02:00
Перевод: Любительский (двухголосый, закадровый) - ViruseProject
Субтитры: Отсутствуют

Режиссер: Габриель Пеллетье / Gabriel Pelletier

В ролях: Пьер-Франсуа Лежандр, Бриджитт Погонат, Паскаль Бюссьер, Норманд Д’Амур, Мишель Лаперьер, Стефани Лапойнт, Бенуа Россо и др.

Описание: Сержант Андре Сурпрена ведёт обычную жизнь на Мадленских островах с дочерью подростком. Всё меняется, когда была найдена убитой и изнасилованной Розали Ришар, дочь мэра. Инспектор Жингра прибыл из Монреаля для расследования этого убийства. Видя, что столичная полиция сосредоточена на неоднозначных фактах, Сурпрена решает провести собственное расследование вместе со своей новенькой напарницей офицером Савуа. Все местные жители оказываются под подозрением.



Перевод: sonnyb
Озвучка: IgVin (Игорь Головин), Lalusha (Алла Блаер)
Работа со звуком: viruse (Виталий Емельянов)



Качество: DVDRip
Формат: AVI
Видео кодек: XviD
Аудио кодек: AC3
Видео: 704x304 (2.32:1), 23.976 fps, ~1259 kbps, 0.25 bit/pixel
Аудио rus: AC3 Dolby Digital, 3/2 (L,C,R,l,r) + LFE ch, 448 kbps

Формат : AVI
Формат/Информация : Audio Video Interleave
Размер файла : 1,46 Гбайт
Продолжительность : 2 ч. 2 м.
Общий поток : 1717 Кбит/сек
Программа кодирования : VirtualDubMod 1.5.10.2 (build 2540/release)
Библиотека кодирования : VirtualDubMod build 2540/release

Видео
Идентификатор : 0
Формат : MPEG-4 Visual
Профиль формата : Advanced Simple@L5
Параметр BVOP формата : 1
Параметр QPel формата : Нет
Параметр GMC формата : Без точки перехода
Параметр матрицы формата : Default (MPEG)
Идентификатор кодека : XVID
Идентификатор кодека/Подсказка : XviD
Продолжительность : 2 ч. 2 м.
Битрейт : 1259 Кбит/сек
Ширина : 704 пикс.
Высота : 304 пикс.
Соотношение сторон : 2,35:1
Частота кадров : 23,976 кадр/сек
Цветовое пространство : YUV
Подвыборка цветности : 4:2:0
Битовая глубина : 8 бит
Тип развёртки : Прогрессивная
Метод сжатия : С потерями
Бит/(Пиксели*Кадры) : 0.245
Размер потока : 1,07 Гбайт (73%)
Библиотека кодирования : XviD 1.2.1 (UTC 2008-12-04)

Аудио
Идентификатор : 1
Формат : AC-3
Формат/Информация : Audio Coding 3
Расширение режима : CM (complete main)
Идентификатор кодека : 2000
Продолжительность : 2 ч. 2 м.
Вид битрейта : Постоянный
Битрейт : 448 Кбит/сек
Каналы : 6 каналов
Расположение каналов : Front: L C R, Side: L R, LFE
Частота : 48,0 КГц
Битовая глубина : 16 бит
Метод сжатия : С потерями
Размер потока : 391 Мбайт (26%)
Выравнивание : Разделение по промежуткам
Продолжительность промежутка : 42 мс. (1,00 видеокадр)
Время предзагрузки промежутка : 500 ms



загрузка...
Правила, инструкции, FAQ!!!
Торрент  Добавлен [10 янв 2013, 17:53] Скачать торрент
Скачать торрент
[ Размер 15.06 КБ / Просмотров 10 ]

Статус
Проверен 
 
Размер  1.46 ГБ
Приватный: Нет (DHT включён)
.torrent скачан  0
Как залить торрент? | Как скачать Torrent? | Как смотреть и слушать онлайн?  


     Отправить личное сообщение
   
Страница 1 из 1
Показать сообщения за:  Поле сортировки  
Начать новую тему Ответить на тему

   Похожие торренты   Автор   Ответы   Просмотры   Последнее сообщение 
В этой теме нет новых непрочитанных сообщений. Скачать торрент Проверен Страх на продажу: Призрак воды (2014) РС

в форуме Приключения и квесты|я ищу, Размер: 1.07 ГБ, Здоровье: 100%

Гость

0
307|7

168
912

17 июл 2015, 08:51

Гость Перейти к последнему сообщению

В этой теме нет новых непрочитанных сообщений. Скачать торрент Проверен (Hardcore) [16/48] Les Enfants Sages - ParaZit 303 (Peur Bleue, Peur Bleue 07) - 2006, FLAC (tracks)

в форуме Электронная музыка (оцифровки), Размер: 149.61 МБ, Здоровье: 0%

Anonymous

0
0|0

2
0

14 сен 2016, 21:47

Anonymous Перейти к последнему сообщению

В этой теме нет новых непрочитанных сообщений. Скачать торрент Проверен Лох - Победитель Воды (1991) DVDRip-AVC

в форуме Криминал, Размер: 1.51 ГБ, Здоровье: 97%

Гость

0
36|37

280
74

23 фев 2015, 00:15

Гость Перейти к последнему сообщению

В этой теме нет новых непрочитанных сообщений. Скачать торрент У края воды / Water's Edge (Харви Каан) [2003 г., Драма, триллер, детектив, DVDRip]

в форуме Драмы, Мелодрамы, Размер: 1.37 ГБ, Здоровье: 100%

Anonymous

0
40|1

55
2

10 фев 2014, 13:04

Anonymous Перейти к последнему сообщению

В этой теме нет новых непрочитанных сообщений. Скачать торрент Проверен [iPod] Страх и ненависть в Лас-Вегасе / Fear and Loathing in Las Vegas (H.264) [320x128] (Терри Гиллиам) [1998 г., Криминальная комедия/Драма, DVDRip]

в форуме Фильмы для iPod, iPhone, iPad, Размер: 749.89 МБ, Здоровье: 100%

Anonymous

0
7|2

21
0

12 май 2015, 00:05

Anonymous Перейти к последнему сообщению



Сейчас этот форум просматривают: нет зарегистрированных пользователей и гости: 1


Вы не можете начинать темы
Вы не можете отвечать на сообщения
Вы не можете редактировать свои сообщения
Вы не можете удалять свои сообщения
Вы не можете добавлять вложения

Перейти:  

!ВНИМАНИЕ!
 Ресурс не предоставляет электронные версии произведений, а занимается лишь коллекционированием и каталогизацией ссылок, присылаемых и публикуемых на форуме нашими читателями. Если вы являетесь правообладателем какого-либо представленного материала и не желаете чтобы ссылка на него находилась в нашем каталоге, свяжитесь с нами и мы незамедлительно удалим её. Файлы для обмена на трекере предоставлены пользователями сайта, и администрация не несёт ответственности за их содержание. Просьба не заливать файлы, защищенные авторскими правами, а также файлы нелегального содержания!