На всех торрентах на трекере установлена скидка на скачивание в размере 100 процентов(а).
 Возможность скачивания торрента НЕ зависит от ограничений при низком ратио, низком аплоаде, требуемом ратио или требуемом аплоаде.


Начать новую тему Ответить на тему
Статистика раздачи
Размер: 1.45 ГБ | Добавлен: 15 апр 2014, 08:20 | Скачали: 0
Сидеров: 75  [0 байт/сек]    Личеров: 0  [0 байт/сек]
Пред. тема | След. тема 

Автор
Сообщение

СообщениеДобавлено: 15 апр 2014, 08:20 

Залечь на дно в Брюгге / In Bruges

Год выпуска: 2007
Страна: Великобритания, США
Жанр: Триллер, Драма, Комедия
Продолжительность: 1:46:49
Перевод: Авторский (Одноголосый), Антон Карповский
Cубтитры: нет

Режиссер: Мартин МакДона / Martin McDonagh

В ролях: Колин Фаррелл /Colin Farrell/, Брендан Глисон /Brendan Gleeson/, Рэйф Файнс /Ralph Fiennes/, Клеманс Поэзи /Clémence Poésy/, Джордан Прентис /Jordan Prentice/, Элизабет Беррингтон /Elizabeth Berrington/

Описание: После того, как наемные убийцы Рэй и Кен запороли в Лондоне важное задание, их злобный шеф Гарри приказывает им отправиться в Брюгге и не высовываться. Оказавшись в старинном бельгийском городке, Рэй от нечего делать флиртует с местной красоткой, пока Кен наслаждается жизнью и неожиданным отпуском. Кажется, ничто не предвещает беду в спокойном городе…

Качество видео: HDRip
Формат: AVI
Видео кодек: XviD
Аудио кодек: AC3
Видео: 720x304, 24,000 fps, 1492 kbps
Аудио: 48000Hz, DD 5.1, 448 kbps

Скачать: SAMPLE 31.01MB

MediaInfo
Формат : AVI
Формат/Информация : Audio Video Interleave
Размер файла : 1,45 Гбайт
Продолжительность : 1 ч. 46 м.
Общий поток : 1949 Кбит/сек
Программа кодирования : VirtualDubMod 1.5.4.1 (build 2178/release)
Библиотека кодирования : VirtualDubMod build 2178/release

Видео
Идентификатор : 0
Формат : MPEG-4 Visual
Профиль формата : Advanced Simple@L5
Параметр BVOP формата : 2
Параметр QPel формата : Нет
Параметр GMC формата : Без точки перехода
Параметр матрицы формата : Выборочная
Режим смешивания : Сжатый битовый поток
Идентификатор кодека : XVID
Идентификатор кодека/Подсказка : XviD
Продолжительность : 1 ч. 46 м.
Битрейт : 1492 Кбит/сек
Ширина : 720 пикселей
Высота : 304 пикселя
Соотношение сторон : 2,35:1
Частота кадров : 24,000 кадра/сек
Цветовое пространство : YUV
Субдискретизация насыщенности : 4:2:0
Битовая глубина : 8 бит
Тип развёртки : Прогрессивная
Метод сжатия : С потерями
Бит/(Пиксели*Кадры) : 0.284
Размер потока : 1,11 Гбайт (77%)
Библиотека кодирования : XviD 1.2.1 (UTC 2008-12-04)

Аудио
Идентификатор : 1
Формат : AC-3
Формат/Информация : Audio Coding 3
Расширение режима : CM (complete main)
Параметр Endianness формата : Big
Идентификатор кодека : 2000
Продолжительность : 1 ч. 46 м.
Вид битрейта : Постоянный
Битрейт : 448 Кбит/сек
Каналы : 6 каналов
Расположение каналов : Front: L C R, Side: L R, LFE
Частота : 48,0 КГц
Битовая глубина : 16 бит
Метод сжатия : С потерями
Размер потока : 342 Мбайт (23%)
Выравнивание : Разделение по промежуткам
Продолжительность промежутка : 42 мс. (1,00 видеокадр)
Время предзагрузки промежутка : 500 мс.
Скриншоты
загрузка...
Правила, инструкции, FAQ!!!
Торрент  Добавлен [15 апр 2014, 08:20] Скачать торрент
Скачать торрент
[ Размер 15.03 КБ / Просмотров 6 ]

Статус  
 
Размер  1.45 ГБ
Приватный: Нет (DHT включён)
.torrent скачан  0
Как залить торрент? | Как скачать Torrent? | Как смотреть и слушать онлайн?  


     Отправить личное сообщение
   
Страница 1 из 1
Показать сообщения за:  Поле сортировки  
Начать новую тему Ответить на тему

   Похожие торренты   Автор   Ответы   Просмотры   Последнее сообщение 
В этой теме нет новых непрочитанных сообщений. Скачать торрент Залечь на дно в Брюгге / Однажды в Брюгге / In Bruges (Мартин МакДонах / Martin McDonagh) [2008, криминал, комедия, BDRip]

в форуме Криминал, Размер: 1.99 ГБ, Здоровье: 100%

Anonymous

0
52|17

53
0

19 фев 2014, 09:54

Anonymous Перейти к последнему сообщению

В этой теме нет новых непрочитанных сообщений. Скачать торрент В Брюгге / Залечь на дно в Брюгге / In Bruges (Мартин МакДонах / Martin McDonagh) [2008 г., трагикомедия, криминал, HDRip]

в форуме Криминал, Размер: 1.56 ГБ, Здоровье: 100%

Anonymous

0
56|19

71
0

02 апр 2014, 12:09

Anonymous Перейти к последнему сообщению

В этой теме нет новых непрочитанных сообщений. Скачать торрент Проверен Залечь на дно в Брюгге / In Bruges (2008) BDRip 720p

в форуме 720p | 1080p, Размер: 3.28 ГБ, Здоровье: 100%

Anonymous

0
112|0

22
430

15 авг 2014, 10:24

Anonymous Перейти к последнему сообщению

В этой теме нет новых непрочитанных сообщений. Скачать торрент Залечь на дно в Брюгге / In Bruges (2008) BDRip 1080p

в форуме 720p | 1080p, Размер: 7.76 ГБ, Здоровье: 0%

Anonymous

0
0|0

20
0

17 дек 2013, 23:00

Anonymous Перейти к последнему сообщению

В этой теме нет новых непрочитанных сообщений. Скачать торрент Проверен Мартин МакДонах / Martin McDonagh - Человек-подушка / The Pillowman [2007, PDF]

в форуме Зарубежная литература (XX и XXI век), Размер: 920.28 КБ, Здоровье: 0%

Anonymous

0
0|0

8
0

08 сен 2016, 18:40

Anonymous Перейти к последнему сообщению



Сейчас этот форум просматривают: нет зарегистрированных пользователей и гости: 4


Вы не можете начинать темы
Вы не можете отвечать на сообщения
Вы не можете редактировать свои сообщения
Вы не можете удалять свои сообщения
Вы не можете добавлять вложения

Перейти:  

!ВНИМАНИЕ!
 Ресурс не предоставляет электронные версии произведений, а занимается лишь коллекционированием и каталогизацией ссылок, присылаемых и публикуемых на форуме нашими читателями. Если вы являетесь правообладателем какого-либо представленного материала и не желаете чтобы ссылка на него находилась в нашем каталоге, свяжитесь с нами и мы незамедлительно удалим её. Файлы для обмена на трекере предоставлены пользователями сайта, и администрация не несёт ответственности за их содержание. Просьба не заливать файлы, защищенные авторскими правами, а также файлы нелегального содержания!