На всех торрентах на трекере установлена скидка на скачивание в размере 100 процентов(а).
 Возможность скачивания торрента НЕ зависит от ограничений при низком ратио, низком аплоаде, требуемом ратио или требуемом аплоаде.


Начать новую тему Ответить на тему
Статистика раздачи
Размер: 1.46 ГБ | Добавлен: 15 апр 2014, 08:20 | Скачали: 0
Сидеров: 56  [0 байт/сек]    Личеров: 19  [0 байт/сек]
Пред. тема | След. тема 

Автор
Сообщение

СообщениеДобавлено: 15 апр 2014, 08:20 

Законопослушный гражданин / Law abiding citizen
Режиссёрская версия / Unrated director's cut
Страна: США | Overture Films
Жанр: триллер, драма, криминал
Год выпуска: 2009
Продолжительность: 01:58:06

Перевод: Авторский (одноголосый закадровый) (Юрий Сербин
)
Cубтитры: нет
Режиссер: Ф. Гэри Грей / F. Gary Gray

В ролях: Джейми Фокс, Джерард Батлер, Колм Мини, Брюс МакГилл, Лесли Бибб, Майкл Ирби, Грегори Итцин, Реджина Холл, Эмиральд Янг, Кристиан Столте

Описание: Добропорядочный житель Филадельфии Клайд Шелтон теряет семью в результате бандитского нападения. Но когда преступники оказались в руках правосудия, выяснилось, что юридической Системе удобнее пойти на сделку с одним из бандитов, чтобы дать высшую меру другому.

Помощник окружного прокурора Ник Райс идет на эту сделку, вопреки протестам возмущенного Шелтона, свято верящего в безукоризненность Закона. Но его права были попраны… И тогда спустя годы безвестный мститель начинает творить собственную расправу над убийцами. Ник Райс достаточно быстро находит его. Это… Клайд Шелтон. Райсу кажется, что ему нетрудно добиться признания от раздавленного семейной трагедией Клайда.

Каково же изумление всех работников Системы, когда они обнаруживают, что даже помещенный в тюрьму, этот человек способен на самую жестокую и изощренную месть. Более того, они оказались совершенно бессильны перед гениальной игрой и смертоносными ударами изолированного в одиночке Шелтона! Законопослушный гражданин начал беспощадную войну против всех них. И дело вовсе не в мести…


Сэмпл: http://multi-up.com/581307

Качество видео: HDRip (BDRip 720p)
Формат видео: AVI

Видео: 720x304 (2,35:1); 1308 Kbps; 23.976 fps; 0.249 bpf
Аудио: 48 kHz, AC3 Dolby Digital, 3/2 (L,C,R,l,r) + LFE ch, ~448 kbps
MediaInfo
Video
ID : 0
Format : MPEG-4 Visual
Format profile : Advanced Simple@L5
Format settings, BVOP : 2
Format settings, QPel : No
Format settings, GMC : No warppoints
Format settings, Matrix : Custom
Codec ID : XVID
Codec ID/Hint : XviD
Duration : 1h 58mn
Bit rate : 1 308 Kbps
Width : 720 pixels
Height : 304 pixels
Display aspect ratio : 2.35:1
Frame rate : 23.976 fps
Color space : YUV
Chroma subsampling : 4:2:0
Bit depth : 8 bits
Scan type : Progressive
Compression mode : Lossy
Bits/(Pixel*Frame) : 0.249
Stream size : 1.08 GiB (74%)
Writing library : XviD 1.2.1 (UTC 2008-12-04)

Audio
ID : 1
Format : AC-3
Format/Info : Audio Coding 3
Mode extension : CM (complete main)
Codec ID : 2000
Duration : 1h 58mn
Bit rate mode : Constant
Bit rate : 448 Kbps
Channel(s) : 6 channels
Channel positions : Front: L C R, Side: L R, LFE
Sampling rate : 48.0 KHz
Bit depth : 16 bits
Compression mode : Lossy
Stream size : 378 MiB (25%)
Alignment : Split accross interleaves
Interleave, duration : 42 ms (1.00 video frame)
Interleave, preload duration : 500 ms
загрузка...
Правила, инструкции, FAQ!!!
Торрент  Добавлен [15 апр 2014, 08:20] Скачать торрент
Скачать торрент
[ Размер 15.06 КБ / Просмотров 8 ]

Статус  
 
Размер  1.46 ГБ
Приватный: Нет (DHT включён)
.torrent скачан  0
Как залить торрент? | Как скачать Torrent? | Как смотреть и слушать онлайн?  


     Отправить личное сообщение
   
Страница 1 из 1
Показать сообщения за:  Поле сортировки  
Начать новую тему Ответить на тему

   Похожие торренты   Автор   Ответы   Просмотры   Последнее сообщение 
В этой теме нет новых непрочитанных сообщений. Скачать торрент Проверен [iPad] Законопослушный гражданин / Law Abiding Citizen (UNRATED) (Ф. Гэри Грей / F. Gary Gray) [2009, триллер, драма, криминал, BDRip, 720p]

в форуме Фильмы для iPod, iPhone, iPad, Размер: 3.23 ГБ, Здоровье: 100%

Anonymous

0
17|5

44
0

11 май 2015, 01:41

Anonymous Перейти к последнему сообщению

В этой теме нет новых непрочитанных сообщений. Скачать торрент Законопослушный гражданин / Law Abiding Citizen (Ф. Гэри Грей / F. Gary Gray) [2009, Триллер, драма, криминал, BDRip] [Театральная версия / Theatrical cut] Dub

в форуме Триллеры, Размер: 745.01 МБ, Здоровье: 100%

Anonymous

0
10|3

96
0

12 фев 2014, 11:47

Anonymous Перейти к последнему сообщению

В этой теме нет новых непрочитанных сообщений. Скачать торрент Проверен [iPhone] Законопослушный гражданин / Law Abiding Citizen (Ф. Гэри Грей) [2009 г., триллер, драма, DVDRip]

в форуме Фильмы для iPod, iPhone, iPad, Размер: 575.13 МБ, Здоровье: 100%

Anonymous

0
3|1

24
0

18 май 2015, 10:36

Anonymous Перейти к последнему сообщению

В этой теме нет новых непрочитанных сообщений. Скачать торрент Проверен Законопослушный гражданин / Law Abiding Citizen (2009) BDRip [720p] [Unrated Director's Cut]

в форуме 720p | 1080p, Размер: 8.69 ГБ, Здоровье: 0%

Гость

0
0|0

33
0

05 фев 2015, 20:25

Гость Перейти к последнему сообщению

В этой теме нет новых непрочитанных сообщений. Скачать торрент Одиночка / A Man Apart (Ф. Гэри Грей / F. Gary Gray) [2003 г., боевик, триллер, драма, криминал, HDRip] Dub

в форуме Боевики, Размер: 744.42 МБ, Здоровье: 100%

Anonymous

0
2|1

57
0

26 апр 2014, 20:57

Anonymous Перейти к последнему сообщению



Сейчас этот форум просматривают: нет зарегистрированных пользователей и гости: 1


Вы не можете начинать темы
Вы не можете отвечать на сообщения
Вы не можете редактировать свои сообщения
Вы не можете удалять свои сообщения
Вы не можете добавлять вложения

Перейти:  

!ВНИМАНИЕ!
 Ресурс не предоставляет электронные версии произведений, а занимается лишь коллекционированием и каталогизацией ссылок, присылаемых и публикуемых на форуме нашими читателями. Если вы являетесь правообладателем какого-либо представленного материала и не желаете чтобы ссылка на него находилась в нашем каталоге, свяжитесь с нами и мы незамедлительно удалим её. Файлы для обмена на трекере предоставлены пользователями сайта, и администрация не несёт ответственности за их содержание. Просьба не заливать файлы, защищенные авторскими правами, а также файлы нелегального содержания!