На всех торрентах на трекере установлена скидка на скачивание в размере 100 процентов(а).
 Возможность скачивания торрента НЕ зависит от ограничений при низком ратио, низком аплоаде, требуемом ратио или требуемом аплоаде.


Начать новую тему Ответить на тему
Статистика раздачи
Размер: 2.17 ГБ | Добавлен: 15 апр 2014, 08:17 | Скачали: 0
Сидеров: 0  [0 байт/сек]    Личеров: 0  [0 байт/сек]
Пред. тема | След. тема 

Автор
Сообщение

СообщениеДобавлено: 15 апр 2014, 08:17 

Американец / The American

Страна: США
Студия: Focus Features, Greenlit Rights, Smoke House, This Is That Productions
Жанр: триллер, драма, криминал
Год выпуска: 2010
Продолжительность: 01:44:45

Перевод: Профессиональный (дублированный)
Субтитры: нет
Оригинальная аудиодорожка: нет

Режиссер: Антон Корбайн / Anton Corbijn

В ролях: Джордж Клуни, Ирина Бьёрклунд, Ларс Эльм, Йохан Лейзен, Паоло Боначелли, Джорджо Гобби, Сильвана Бози, Текла Рютен, Guido Palliggiano, Самули Ваурамо...

Описание: После провала очередной операции и гибели любовницы профессиональный киллер Джек решает завершить свою карьеру. Остается последнее дело, заказанное ему таинственной женщиной, для выполнения которого он тайно едет в Италию и поселяется в маленьком городке, затерявшемся в живописных горах. Здесь неожиданно для себя самого Джек сближается с местным священником и влюбляется в красавицу Клару. Впервые в жизни раскрывается сердце человека, вынужденного таиться всю свою жизнь. Джек спокоен и счастлив настолько, что теряет бдительность…


Бюджет: $20 000 000


Тип релиза: BDRip-AVC, источник: BLu-Ray от bluebird-hd

Контейнер: MKV
Видео: 1024x576 (16:9), 24.000 fps, H264 ~2524 kbps avg, 0.178 bit/pixel
Аудио : 48 kHz, AC3, 6 ch, 448.00 kbps Constant
MediaInfo
General
Complete name : Amerikanec.2010.D.BDRip-AVC.mkv
Format : Matroska
File size : 2.17 GiB
Duration : 1h 44mn
Overall bit rate : 2 966 Kbps
Movie name : avproh
Encoded date : UTC 2010-12-06 16:43:40
Writing application : mkvmerge v4.1.1 ('Bouncin' Back') сборка от Jul 3 2010 22:54:08
Writing library : libebml v1.0.0 + libmatroska v1.0.0

Video
ID : 1
Format : AVC
Format/Info : Advanced Video Codec
Format profile : High@L4.1
Format settings, CABAC : Yes
Format settings, ReFrames : 11 frames
Codec ID : V_MPEG4/ISO/AVC
Duration : 1h 44mn
Bit rate : 2 524 Kbps
Width : 1 024 pixels
Height : 576 pixels
Display aspect ratio : 16:9
Frame rate : 24.000 fps
Color space : YUV
Chroma subsampling : 4:2:0
Bit depth : 8 bits
Scan type : Progressive
Bits/(Pixel*Frame) : 0.178
Stream size : 1.80 GiB (83%)
Writing library : x264 core 92 r1510 33d382a
Encoding settings : cabac=1 / ref=11 / deblock=1:-2:-1 / analyse=0x3:0x113 / me=umh / subme=9 / psy=1 / psy_rd=1.00:0.10 / mixed_ref=1 / me_range=32 / chroma_me=1 / trellis=2 / 8x8dct=1 / cqm=0 / deadzone=21,11 / fast_pskip=1 / chroma_qp_offset=-3 / threads=9 / sliced_threads=0 / nr=0 / decimate=1 / interlaced=0 / constrained_intra=0 / bframes=10 / b_pyramid=2 / b_adapt=2 / b_bias=0 / direct=3 / wpredb=1 / wpredp=0 / keyint=250 / keyint_min=25 / scenecut=40 / intra_refresh=0 / rc_lookahead=80 / rc=2pass / mbtree=1 / bitrate=2524 / ratetol=1.0 / qcomp=0.60 / qpmin=10 / qpmax=51 / qpstep=4 / cplxblur=20.0 / qblur=0.5 / ip_ratio=1.40 / aq=2:0.90
Language : English

Audio
ID : 2
Format : AC-3
Format/Info : Audio Coding 3
Mode extension : CM (complete main)
Codec ID : A_AC3
Duration : 1h 44mn
Bit rate mode : Constant
Bit rate : 448 Kbps
Channel(s) : 6 channels
Channel positions : Front: L C R, Side: L R, LFE
Sampling rate : 48.0 KHz
Bit depth : 16 bits
Stream size : 336 MiB (15%)
Title : AC3 5.1 448 kbps
Language : Russian


загрузка...
Правила, инструкции, FAQ!!!
Торрент  Добавлен [15 апр 2014, 08:17] Скачать торрент
Скачать торрент
[ Размер 22.31 КБ / Просмотров 4 ]

Статус  
 
Размер  2.17 ГБ
Приватный: Нет (DHT включён)
.torrent скачан  0
Как залить торрент? | Как скачать Torrent? | Как смотреть и слушать онлайн?  


     Отправить личное сообщение
   
Страница 1 из 1
Показать сообщения за:  Поле сортировки  
Начать новую тему Ответить на тему

   Похожие торренты   Автор   Ответы   Просмотры   Последнее сообщение 
В этой теме нет новых непрочитанных сообщений. Скачать торрент Три дня на побег / The Next Three Days (Пол Хаггис / Paul Haggis) [2010, США, Франция, триллер, драма, мелодрама, криминал, BDRip] Dub R5

в форуме Триллеры, Размер: 1.46 ГБ, Здоровье: 0%

Anonymous

0
0|0

50
0

02 апр 2014, 08:24

Anonymous Перейти к последнему сообщению

В этой теме нет новых непрочитанных сообщений. Скачать торрент Три дня на побег / The Next Three Days (Пол Хаггис / Paul Haggis) [2010 г., США, Франция, триллер, драма, мелодрама, криминал, BDRip-AVC] Dub + Ukr + Original + sub (rus, ukr, eng)

в форуме 720p | 1080p, Размер: 1.47 ГБ, Здоровье: 100%

Anonymous

0
75|0

57
0

11 фев 2014, 09:16

Anonymous Перейти к последнему сообщению

В этой теме нет новых непрочитанных сообщений. Скачать торрент Город воров / The Town (Бен Аффлек / Ben Affleck) [2010 г., триллер, драма, криминал, BDRip] (Театральная версия / Theatrical Cut) Dub + Sub

в форуме Триллеры, Размер: 1.46 ГБ, Здоровье: 0%

Anonymous

0
0|0

122
0

06 фев 2014, 11:45

Anonymous Перейти к последнему сообщению

В этой теме нет новых непрочитанных сообщений. Скачать торрент Адское наследие / Bundy: An American Icon (Майкл Фейфер / Michael Feifer) [2008, США, триллер, драма, криминал, SATRip] MVO

в форуме Триллеры, Размер: 1.27 ГБ, Здоровье: 100%

Anonymous

0
1|0

43
1

12 фев 2014, 11:45

Anonymous Перейти к последнему сообщению

В этой теме нет новых непрочитанных сообщений. Скачать торрент Три дня на побег / The Next Three Days (Пол Хаггис / Paul Haggis) [2010 г., триллер, драма, мелодрама, криминал, BDRip] DVO (Кубик в Кубе) + AVO (Ю. Сербин)

в форуме Триллеры, Размер: 2.18 ГБ, Здоровье: 0%

Anonymous

0
0|0

78
0

12 фев 2014, 08:15

Anonymous Перейти к последнему сообщению



Сейчас этот форум просматривают: нет зарегистрированных пользователей и гости: 2


Вы не можете начинать темы
Вы не можете отвечать на сообщения
Вы не можете редактировать свои сообщения
Вы не можете удалять свои сообщения
Вы не можете добавлять вложения

Перейти:  

!ВНИМАНИЕ!
 Ресурс не предоставляет электронные версии произведений, а занимается лишь коллекционированием и каталогизацией ссылок, присылаемых и публикуемых на форуме нашими читателями. Если вы являетесь правообладателем какого-либо представленного материала и не желаете чтобы ссылка на него находилась в нашем каталоге, свяжитесь с нами и мы незамедлительно удалим её. Файлы для обмена на трекере предоставлены пользователями сайта, и администрация не несёт ответственности за их содержание. Просьба не заливать файлы, защищенные авторскими правами, а также файлы нелегального содержания!