На всех торрентах на трекере установлена скидка на скачивание в размере 100 процентов(а).
 Возможность скачивания торрента НЕ зависит от ограничений при низком ратио, низком аплоаде, требуемом ратио или требуемом аплоаде.


Начать новую тему Ответить на тему
Статистика раздачи
Размер: 1.85 ГБ | Добавлен: 14 апр 2014, 09:29 | Скачали: 0
Сидеров: 35  [0 байт/сек]    Личеров: 11  [0 байт/сек]
Пред. тема | След. тема 

Автор
Сообщение

СообщениеДобавлено: 14 апр 2014, 09:29 

Зодиак / Zodiac / Режиссерская Версия

Страна: США
Жанр: триллер, драма, криминал, детектив, история
Год выпуска: 2007
Продолжительность: 02:42:35

Перевод: Авторский (одноголосый закадровый) А. Гаврилов
Cубтитры: нет
Режиссер: Дэвид Финчер / David Fincher

В ролях: Джейк Джилленхол, Марк Руффало, Энтони Эдвардс, Роберт Дауни мл., Брайан Кокс, Джон Кэрролл Линч, Ричмонд Аркетт, Роберт Дж. Стефенсон, Джон Лэси, Клоэ Севиньи..

Описание: На протяжении почти 25 лет он держал в страхе весь Сан-Франциско. Общаясь с властями через репортеров, он в своих письмах и шифрах жестоко упрекал полицию в бездействии. «Зодиак» то пропадал на время, то появлялся вновь. Порой полиция начинала сомневаться в том, что за очередным убийством стоял именно тот, за кем они так тщетно охотились, а не какой-нибудь имитатор. Однако и почерк убийств и письма репортерам говорили о том, что «Зодиак» еще не отошел от дел.



Сэмпл: http://multi-up.com/614137

Качество видео: HDRip
Формат видео: AVI

Видео: 720x304 (2.37:1), 23.976 fps, XviD build 64 ~1175 kbps avg, 0.22 bit/pixel
Аудио: 48 kHz, AC3 Dolby Digital, 3/2 (L,C,R,l,r) + LFE ch, ~448 kbps (Гаврилов)
MediaInfo
General
Complete name : D:\Torrent\Zodiac.2007.HDRip.AVO(Gavrilov)by_feld.avi
Format : AVI
Format/Info : Audio Video Interleave
File size : 1.85 GiB
Duration : 2h 42mn
Overall bit rate : 1 633 Kbps
Writing application : VirtualDubModRus 1.5.10.2 (build 2542/release)
Writing library : VirtualDubMod build 2542/release

Video
ID : 0
Format : MPEG-4 Visual
Format profile : Advanced Simple@L5
Format settings, BVOP : Yes
Format settings, QPel : No
Format settings, GMC : No warppoints
Format settings, Matrix : Default (MPEG)
Codec ID : XVID
Codec ID/Hint : XviD
Duration : 2h 42mn
Bit rate : 1 175 Kbps
Width : 720 pixels
Height : 304 pixels
Display aspect ratio : 2.35:1
Frame rate : 23.976 fps
Color space : YUV
Chroma subsampling : 4:2:0
Bit depth : 8 bits
Scan type : Progressive
Bits/(Pixel*Frame) : 0.224
Stream size : 1.33 GiB (72%)
Writing library : XviD 64

Audio
ID : 1
Format : AC-3
Format/Info : Audio Coding 3
Mode extension : CM (complete main)
Codec ID : 2000
Duration : 2h 42mn
Bit rate mode : Constant
Bit rate : 448 Kbps
Channel(s) : 6 channels
Channel positions : Front: L C R, Side: L R, LFE
Sampling rate : 48.0 KHz
Bit depth : 16 bits
Stream size : 521 MiB (27%)
Alignment : Split accross interleaves
Interleave, duration : 42 ms (1.00 video frame)
Interleave, preload duration : 500 ms
Скриншоты
загрузка...
Правила, инструкции, FAQ!!!
Торрент  Добавлен [14 апр 2014, 09:29] Скачать торрент
Скачать торрент
[ Размер 19.11 КБ / Просмотров 14 ]

Статус  
 
Размер  1.85 ГБ
Приватный: Нет (DHT включён)
.torrent скачан  0
Как залить торрент? | Как скачать Torrent? | Как смотреть и слушать онлайн?  


     Отправить личное сообщение
   
Страница 1 из 1
Показать сообщения за:  Поле сортировки  
Начать новую тему Ответить на тему

   Похожие торренты   Автор   Ответы   Просмотры   Последнее сообщение 
В этой теме нет новых непрочитанных сообщений. Скачать торрент Зодиак / Zodiac (Дэвид Финчер / David Fincher) [2007, триллер, драма, криминал, BDRip] [Режиссёрская версия / Director's cut] Dub + AVO (sf@irat)

в форуме Триллеры, Размер: 1.46 ГБ, Здоровье: 100%

Anonymous

0
56|19

112
0

16 фев 2014, 13:08

Anonymous Перейти к последнему сообщению

В этой теме нет новых непрочитанных сообщений. Скачать торрент Зодиак / Zodiac (Дэвид Финчер / David Fincher) [2007 г., триллер, детектив, HDTVRip] DUB

в форуме Триллеры, Размер: 2.18 ГБ, Здоровье: 100%

Anonymous

0
32|10

48
0

07 фев 2014, 11:41

Anonymous Перейти к последнему сообщению

В этой теме нет новых непрочитанных сообщений. Скачать торрент Бойцовский клуб / Fight Club (Дэвид Финчер / David Fincher) [1999, США, Германия, триллер, драма, криминал, детектив, BDRip-AVC] Dub + Original + Sub (rus, eng)

в форуме Триллеры, Размер: 2.94 ГБ, Здоровье: 100%

Anonymous

0
58|20

102
0

01 фев 2014, 19:06

Anonymous Перейти к последнему сообщению

В этой теме нет новых непрочитанных сообщений. Скачать торрент Проверен [iPad] Семь / Se7en / Seven (Дэвид Финчер / David Fincher) [1995, Триллер, детектив, драма, криминал, BDRip, 960 x 400] [REMASTERED] Коллекционное издание

в форуме Фильмы для iPod, iPhone, iPad, Размер: 1.2 ГБ, Здоровье: 100%

Гость

0
27|9

58
0

12 май 2015, 00:06

Гость Перейти к последнему сообщению

В этой теме нет новых непрочитанных сообщений. Скачать торрент Проверен [iPhone] Бойцовский клуб / Fight Club (Дэвид Финчер / David Fincher) [1999, триллер, драма, детектив, HDRip, 480х208] Dub

в форуме Фильмы для iPod, iPhone, iPad, Размер: 756.56 МБ, Здоровье: 100%

Гость

0
23|7

78
1

11 май 2015, 01:41

Гость Перейти к последнему сообщению



Сейчас этот форум просматривают: нет зарегистрированных пользователей и гости: 1


Вы не можете начинать темы
Вы не можете отвечать на сообщения
Вы не можете редактировать свои сообщения
Вы не можете удалять свои сообщения
Вы не можете добавлять вложения

Перейти:  

!ВНИМАНИЕ!
 Ресурс не предоставляет электронные версии произведений, а занимается лишь коллекционированием и каталогизацией ссылок, присылаемых и публикуемых на форуме нашими читателями. Если вы являетесь правообладателем какого-либо представленного материала и не желаете чтобы ссылка на него находилась в нашем каталоге, свяжитесь с нами и мы незамедлительно удалим её. Файлы для обмена на трекере предоставлены пользователями сайта, и администрация не несёт ответственности за их содержание. Просьба не заливать файлы, защищенные авторскими правами, а также файлы нелегального содержания!