На всех торрентах на трекере установлена скидка на скачивание в размере 100 процентов(а).
 Возможность скачивания торрента НЕ зависит от ограничений при низком ратио, низком аплоаде, требуемом ратио или требуемом аплоаде.


Начать новую тему Ответить на тему
Статистика раздачи
Размер: 1.46 ГБ | Добавлен: 14 апр 2014, 09:27 | Скачали: 0
Сидеров: 0  [0 байт/сек]    Личеров: 0  [0 байт/сек]
Пред. тема | След. тема 

Автор
Сообщение

СообщениеДобавлено: 14 апр 2014, 09:27 

Игры страсти / Passion Play

«Любовь сильнее, чем смерть»

Год выпуска: 2010
Премьера: 10 сентября 2010
Страна:
Жанр: триллер, драма
Продолжительность: 01:34:13
Перевод: Профессиональный (многоголосый, закадровый) [лицензия]
Cубтитры: Нет
Режиссёр: Митч Глейзер / Mitch Glazer


В ролях: Микки Рурк, Меган Фокс, Билл Мюррей, Келли Линч, Джерри Сойерс, Армин Амири, Тина Борек, Чарли Б. Браун, Крис Браунинг, Лайзл Карстенс


Описание: Лос-Анджелес 50-х годов. Лента повествует о нелегкой судьбе музыканта-неудачника, зарабатывающего себе кусок хлеба игрой на трубе, и чистейшего, невинного Ангела. Однажды музыкант спасает Ангела от мерзкого бандита, и его жизнь меняется.


Качество: BDRip (Исходник Passion.Play.2010.Blu-ray-BLUEBIRD)
Формат: AVI
Видео кодек: XviD
Аудио кодек: AC3
Видео: 720x304 (2.37:1), 23.976 fps, XviD MPEG-4 ~1756 kbps avg, 0.33 bit/pixel
Аудио - : 48 kHz, AC3 Dolby Digital, 3/2 (L,C,R,l,r) LFE ch, ~448 kbps



MediaInfo
Код:
Код:
General
Complete name                    : D:\Downloads\Passion.Play.2010.BDRip.XviD-denashekkk.avi
Format                           : AVI
Format/Info                      : Audio Video Interleave
File size                        : 1.46 GiB
Duration                         : 1h 34mn
Overall bit rate                 : 2 213 Kbps
Writing application              : VirtualDubMod 1.5.10.3 | www.virtualdub-fr.org || (build 2550/release)
Writing library                  : VirtualDubMod build 2550/release

Video
ID                               : 0
Format                           : MPEG-4 Visual
Format profile                   : Advanced Simple@L5
Format settings, BVOP            : 1
Format settings, QPel            : No
Format settings, GMC             : No warppoints
Format settings, Matrix          : Custom
Codec ID                         : XVID
Codec ID/Hint                    : XviD
Duration                         : 1h 34mn
Bit rate                         : 1 756 Kbps
Width                            : 720 pixels
Height                           : 304 pixels
Display aspect ratio             : 2.35:1
Frame rate                       : 23.976 fps
Color space                      : YUV
Chroma subsampling               : 4:2:0
Bit depth                        : 8 bits
Scan type                        : Progressive
Compression mode                 : Lossy
Bits/(Pixel*Frame)               : 0.335
Stream size                      : 1.16 GiB (79%)
Writing library                  : XviD 64

Audio
ID                               : 1
Format                           : AC-3
Format/Info                      : Audio Coding 3
Mode extension                   : CM (complete main)
Codec ID                         : 2000
Duration                         : 1h 34mn
Bit rate mode                    : Constant
Bit rate                         : 448 Kbps
Channel(s)                       : 6 channels
Channel positions                : Front: L C R, Side: L R, LFE
Sampling rate                    : 48.0 KHz
Bit depth                        : 16 bits
Compression mode                 : Lossy
Stream size                      : 302 MiB (20%)
Alignment                        : Split accross interleaves
Interleave, duration             : 42 ms (1.00 video frame)
Interleave, preload duration     : 500 ms

Скриншоты
загрузка...
Правила, инструкции, FAQ!!!
Торрент  Добавлен [14 апр 2014, 09:27] Скачать торрент
Скачать торрент
[ Размер 15.07 КБ / Просмотров 5 ]

Статус  
 
Размер  1.46 ГБ
Приватный: Нет (DHT включён)
.torrent скачан  0
Как залить торрент? | Как скачать Torrent? | Как смотреть и слушать онлайн?  


     Отправить личное сообщение
   
Страница 1 из 1
Показать сообщения за:  Поле сортировки  
Начать новую тему Ответить на тему

   Похожие торренты   Автор   Ответы   Просмотры   Последнее сообщение 
В этой теме нет новых непрочитанных сообщений. Скачать торрент Страсти Христовы / The Passion of the Christ (Мэл Гибсон / Mel Gibson) [2004 г., историческая драма, BDRip-AVC]

в форуме Исторические, Размер: 2.93 ГБ, Здоровье: 100%

Anonymous

0
23|7

268
1

26 апр 2014, 20:56

Anonymous Перейти к последнему сообщению

В этой теме нет новых непрочитанных сообщений. Скачать торрент Страсти Христовы / The Passion of the Christ (Мэл Гибсон / Mel Gibson) [2004, историческая драма, BDRip]

в форуме Исторические, Размер: 2.19 ГБ, Здоровье: 100%

Anonymous

0
11|5

205
0

26 апр 2014, 20:56

Anonymous Перейти к последнему сообщению

В этой теме нет новых непрочитанных сообщений. Скачать торрент Проверен [iPad] Цена страсти / The Ledge (Мэтью Чэпмен/ Matthew Chapman) [2011, США, Триллер, драма, BDRip, 576p] Dub + Original + sub (rus, eng)

в форуме Фильмы для iPod, iPhone, iPad, Размер: 1.75 ГБ, Здоровье: 100%

Anonymous

0
8|2

32
0

12 май 2015, 00:07

Anonymous Перейти к последнему сообщению

В этой теме нет новых непрочитанных сообщений. Скачать торрент Проверен Митч Каллин / Mitch Cullin - Минисборник (3 книги) [2007-2009, FB2, PDF, RTF, RUS]

в форуме Зарубежная литература (XX и XXI век), Размер: 11.9 МБ, Здоровье: 100%

Anonymous

0
9|3

8
0

08 сен 2016, 20:06

Anonymous Перейти к последнему сообщению

В этой теме нет новых непрочитанных сообщений. Скачать торрент Проверен Белая серия (мини) - Mitch Cullin / Митч Каллин - Tideland / Страна приливов [2007, FB2/RTF/PDF, RUS]

в форуме Зарубежная литература (XX и XXI век), Размер: 1.38 МБ, Здоровье: 0%

Anonymous

0
0|0

6
0

08 сен 2016, 18:30

Anonymous Перейти к последнему сообщению



Сейчас этот форум просматривают: нет зарегистрированных пользователей и гости: 1


Вы не можете начинать темы
Вы не можете отвечать на сообщения
Вы не можете редактировать свои сообщения
Вы не можете удалять свои сообщения
Вы не можете добавлять вложения

Перейти:  

!ВНИМАНИЕ!
 Ресурс не предоставляет электронные версии произведений, а занимается лишь коллекционированием и каталогизацией ссылок, присылаемых и публикуемых на форуме нашими читателями. Если вы являетесь правообладателем какого-либо представленного материала и не желаете чтобы ссылка на него находилась в нашем каталоге, свяжитесь с нами и мы незамедлительно удалим её. Файлы для обмена на трекере предоставлены пользователями сайта, и администрация не несёт ответственности за их содержание. Просьба не заливать файлы, защищенные авторскими правами, а также файлы нелегального содержания!