На всех торрентах на трекере установлена скидка на скачивание в размере 100 процентов(а).
 Возможность скачивания торрента НЕ зависит от ограничений при низком ратио, низком аплоаде, требуемом ратио или требуемом аплоаде.


Начать новую тему Ответить на тему
Статистика раздачи
Размер: 1.46 ГБ | Добавлен: 02 апр 2014, 08:24 | Скачали: 0
Сидеров: 0  [0 байт/сек]    Личеров: 0  [0 байт/сек]
Пред. тема | След. тема 

Автор
Сообщение

СообщениеДобавлено: 02 апр 2014, 08:24 

Три дня на побег / The Next Three Days
«Все ради неё»

Страна: США, Франция / Fidélité Films, Hwy61, Lionsgate
Жанр: триллер, драма, мелодрама, криминал
Год выпуска: 2010
Продолжительность: 02:13:08

Перевод: Профессиональный (дублированный) лицензия R5
Cубтитры: нет
Режиссёр: Пол Хаггис / Paul Haggis

В ролях: Рассел Кроу, Элизабет Бэнкс, Джейсон Бех, Аиша Хиндс, Оливия Уайлд, Дэниел Стерн, Хелен Кэри, Брайан Деннехи, Лиам Нисон, Ленни Джеймс, Майкл Бьюи, Моран Атиас, Реми Нозик, Тоби Грин, Тайлер Грин, Ти Кигэн Симпкинс...

Описание: Жизнь Джона казалась идеальной, пока его красавицу жену не арестовали по подозрению в убийстве. Пока Лара сидит в тюрьме, Джон один воспитывает сына и пытается всеми способами доказать ее невиновность.
Но, когда законные способы освободить любимую исчерпаны, единственное, что ему остается — разработать изощренный план побега. Джон готов рискнуть всем ради нее… Но что если она действительно виновна?




MPAA: - детям до 13 лет просмотр не желателен
Сэмпл: http://multi-up.com/958842


Качество видео: BDRip
Формат видео: AVI

Видео: XviD build 65, 720x304 (2.37:1), 23.976 fps, ~1372 kbps avg, 0.261 bit/pixel
Аудио: 48 kHz, AC3 Dolby Digital, 2/0 (L,R) ch, ~192 kbps avg (Dub)

MediaInfo
Общее
Полное имя : D:\The.Next.Three.Days.2010.Dub.BDRip.1,46Gb.XviD.AC3.avi
Формат : AVI
Формат/Информация : Audio Video Interleave
Размер файла : 1,46 Гбайт
Продолжительность : 2 ч. 13 м.
Общий поток : 1573 Кбит/сек
Название фильма : The Next Three Days 2010
Режиссёр : Paul Haggis
Дата записи : 26.02.2014
Программа кодирования : VirtualDubModRus 1.5.10.2 (build 2542/release)
Библиотека кодирования : VirtualDubMod build 2542/release
Правообладатель : Rutracker.org
Примечание : MooN_WalkeR

Видео
Идентификатор : 0
Формат : MPEG-4 Visual
Профиль формата : Advanced Simple@L5
Параметр BVOP формата : 1
Параметр QPel формата : Нет
Параметр GMC формата : Без точки перехода
Параметр матрицы формата : Выборочная
Идентификатор кодека : XVID
Идентификатор кодека/Подсказка : XviD
Продолжительность : 2 ч. 13 м.
Битрейт : 1372 Кбит/сек
Ширина : 720 пикселей
Высота : 304 пикселя
Соотношение сторон : 2,35:1
Частота кадров : 23,976 кадра/сек
Цветовое пространство : YUV
Субдискретизация насыщенности : 4:2:0
Битовая глубина : 8 бит
Тип развёртки : Прогрессивная
Метод сжатия : С потерями
Бит/(Пиксели*Кадры) : 0.261
Размер потока : 1,28 Гбайт (87%)
Библиотека кодирования : XviD 65

Аудио
Идентификатор : 1
Формат : AC-3
Формат/Информация : Audio Coding 3
Расширение режима : CM (complete main)
Идентификатор кодека : 2000
Продолжительность : 2 ч. 13 м.
Вид битрейта : Постоянный
Битрейт : 192 Кбит/сек
Каналы : 2 канала
Расположение каналов : Front: L R
Частота : 48,0 КГц
Битовая глубина : 16 бит
Метод сжатия : С потерями
Размер потока : 183 Мбайт (12%)
Выравнивание : Разделение по промежуткам
Продолжительность промежутка : 42 мс. (1,00 видеокадр)
Время предзагрузки промежутка : 500 мс.
Заголовок : Dub
Скриншоты
загрузка...
Правила, инструкции, FAQ!!!
Торрент  Добавлен [02 апр 2014, 08:24] Скачать торрент
Скачать торрент
[ Размер 15.16 КБ / Просмотров 8 ]

Статус  
 
Размер  1.46 ГБ
Приватный: Нет (DHT включён)
.torrent скачан  0
Как залить торрент? | Как скачать Torrent? | Как смотреть и слушать онлайн?  


     Отправить личное сообщение
   
Страница 1 из 1
Показать сообщения за:  Поле сортировки  
Начать новую тему Ответить на тему

   Похожие торренты   Автор   Ответы   Просмотры   Последнее сообщение 
В этой теме нет новых непрочитанных сообщений. Скачать торрент Три дня на побег / The Next Three Days (Пол Хаггис / Paul Haggis) [2010 г., США, Франция, триллер, драма, мелодрама, криминал, BDRip-AVC] Dub + Ukr + Original + sub (rus, ukr, eng)

в форуме 720p | 1080p, Размер: 1.47 ГБ, Здоровье: 100%

Anonymous

0
75|0

58
0

11 фев 2014, 09:16

Anonymous Перейти к последнему сообщению

В этой теме нет новых непрочитанных сообщений. Скачать торрент Три дня на побег / The Next Three Days (Пол Хаггис / Paul Haggis) [2010 г., триллер, драма, мелодрама, криминал, BDRip] DVO (Кубик в Кубе) + AVO (Ю. Сербин)

в форуме Триллеры, Размер: 2.18 ГБ, Здоровье: 0%

Anonymous

0
0|0

78
0

12 фев 2014, 08:15

Anonymous Перейти к последнему сообщению

В этой теме нет новых непрочитанных сообщений. Скачать торрент Проверен [iPad] Три дня на побег / The Next Three Days (Пол Хаггис / Paul Haggis) [2010, триллер, драма, мелодрама, BDRip, 720p]

в форуме Фильмы для iPod, iPhone, iPad, Размер: 3.48 ГБ, Здоровье: 100%

Гость

0
37|12

44
0

11 май 2015, 01:22

Гость Перейти к последнему сообщению

В этой теме нет новых непрочитанных сообщений. Скачать торрент Потерянный рейс / United 93 (Пол Гринграсс / Paul Greengrass) [2006, США, Франция, Великобритания, драма, криминал, история, BDRip] DUB

в форуме Драмы, Мелодрамы, Размер: 1.81 ГБ, Здоровье: 100%

Anonymous

0
37|12

68
0

02 апр 2014, 08:22

Anonymous Перейти к последнему сообщению

В этой теме нет новых непрочитанных сообщений. Скачать торрент Наркоз / Awake (Джоби Харольд / Joby Harold) [2007 г., триллер, драма, мелодрама, криминал, BDRip-AVC] Dub

в форуме Триллеры, Размер: 1.56 ГБ, Здоровье: 100%

Anonymous

0
56|19

38
0

15 апр 2014, 08:19

Anonymous Перейти к последнему сообщению



Сейчас этот форум просматривают: нет зарегистрированных пользователей и гости: 1


Вы не можете начинать темы
Вы не можете отвечать на сообщения
Вы не можете редактировать свои сообщения
Вы не можете удалять свои сообщения
Вы не можете добавлять вложения

Перейти:  

!ВНИМАНИЕ!
 Ресурс не предоставляет электронные версии произведений, а занимается лишь коллекционированием и каталогизацией ссылок, присылаемых и публикуемых на форуме нашими читателями. Если вы являетесь правообладателем какого-либо представленного материала и не желаете чтобы ссылка на него находилась в нашем каталоге, свяжитесь с нами и мы незамедлительно удалим её. Файлы для обмена на трекере предоставлены пользователями сайта, и администрация не несёт ответственности за их содержание. Просьба не заливать файлы, защищенные авторскими правами, а также файлы нелегального содержания!