На всех торрентах на трекере установлена скидка на скачивание в размере 100 процентов(а).
 Возможность скачивания торрента НЕ зависит от ограничений при низком ратио, низком аплоаде, требуемом ратио или требуемом аплоаде.


Начать новую тему Ответить на тему
Статистика раздачи
Размер: 743.05 МБ | Добавлен: 02 апр 2014, 08:21 | Скачали: 0
Сидеров: 0  [0 байт/сек]    Личеров: 0  [0 байт/сек]
Пред. тема | След. тема 

Автор
Сообщение

СообщениеДобавлено: 02 апр 2014, 08:21 

Мальчик в полосатой пижаме / The Boy in the Striped Pyjamas

«A timeless story of innocence lost and humanity found.»

Год выпуска: 2008
Премьера: 28 августа 2008
Страна: |
Жанр: триллер, драма, военный
Продолжительность: 01:34:29
Перевод: Профессиональный (дублированный)
Cубтитры: Нет
Режиссёр: Марк Херман / Mark Herman

В ролях: Аса Баттерфилд, Вера Фармига, Дэвид Тьюлис, Джек Скэнлон, Шила Хэнкок, Ричард Джонсон, Руперт Френд, Эмбер Битти, Лазло Арон, Домонкос Немит


Описание: История, происходящая во время Второй мировой войны и показанная сквозь глаза невинного и ничего не подозревающего о происходящих событиях Бруно, восьмилетнего сына коменданта концентрационного лагеря. Его случайное знакомство и дружба с еврейским мальчиком по другую сторону ограды лагеря, в конечном счете, приводит к самым непредсказуемым и ошеломительным последствиям.


Качество: BDRip (Исходник The.Boy.in.the.Striped.Pyjamas.2008.BluRay-HDCLUB)
Формат: AVI
Видео кодек: XviD
Аудио кодек: MP3
Видео: 640x352 (1.82:1), 23.976 fps, XviD build 65 ~962 kbps avg, 0.18 bit/pixel
Аудио - : 48 kHz, MPEG Layer 3, 2 ch, ~128.00 kbps avg


[/url]
Знаете ли вы, что...
    Съёмки фильма проходили в Будапеште.
  • Фильм основан на одноименном романе ирландского писателя Джона Бойна (John Boyne). Во всем мире было продано более 5 миллионов копий романа.


MediaInfo
Код:
Код:
General
Complete name                    : D:\Downloads\The.Boy.in.the.Striped.Pyjamas.2008.743mb.BDRip.XviD-denashekkk.avi
Format                           : AVI
Format/Info                      : Audio Video Interleave
File size                        : 743 MiB
Duration                         : 1h 34mn
Overall bit rate                 : 1 100 Kbps
Writing application              : VirtualDubMod 1.5.10.2 (build 2540/release)
Writing library                  : VirtualDubMod build 2540/release

Video
ID                               : 0
Format                           : MPEG-4 Visual
Format profile                   : Advanced Simple@L5
Format settings, BVOP            : 2
Format settings, QPel            : No
Format settings, GMC             : No warppoints
Format settings, Matrix          : Custom
Codec ID                         : XVID
Codec ID/Hint                    : XviD
Duration                         : 1h 34mn
Bit rate                         : 962 Kbps
Width                            : 640 pixels
Height                           : 352 pixels
Display aspect ratio             : 16:9
Frame rate                       : 23.976 fps
Color space                      : YUV
Chroma subsampling               : 4:2:0
Bit depth                        : 8 bits
Scan type                        : Progressive
Compression mode                 : Lossy
Bits/(Pixel*Frame)               : 0.178
Stream size                      : 650 MiB (88%)
Writing library                  : XviD 65

Audio
ID                               : 1
Format                           : MPEG Audio
Format version                   : Version 1
Format profile                   : Layer 3
Codec ID                         : 55
Codec ID/Hint                    : MP3
Duration                         : 1h 34mn
Bit rate mode                    : Constant
Bit rate                         : 128 Kbps
Channel(s)                       : 2 channels
Sampling rate                    : 48.0 KHz
Compression mode                 : Lossy
Stream size                      : 86.5 MiB (12%)
Alignment                        : Aligned on interleaves
Interleave, duration             : 42 ms (1.00 video frame)
Interleave, preload duration     : 504 ms
Writing library                  : LAME3.98r
Encoding settings                : -m s -V 4 -q 2 -lowpass 17 -b 128

Скриншоты
загрузка...
Правила, инструкции, FAQ!!!
Торрент  Добавлен [02 апр 2014, 08:21] Скачать торрент
Скачать торрент
[ Размер 15.05 КБ / Просмотров 10 ]

Статус  
 
Размер  743.05 МБ
Приватный: Нет (DHT включён)
.torrent скачан  0
Как залить торрент? | Как скачать Torrent? | Как смотреть и слушать онлайн?  


     Отправить личное сообщение
   
Страница 1 из 1
Показать сообщения за:  Поле сортировки  
Начать новую тему Ответить на тему

   Похожие торренты   Автор   Ответы   Просмотры   Последнее сообщение 
В этой теме нет новых непрочитанных сообщений. Скачать торрент Проверен The Boy in the Striped Pyjamas by John Boyne/Джон Бойн "Мальчик в полосатой пижаме" [2009, DOC]

в форуме Зарубежная литература (XX и XXI век), Размер: 1.52 МБ, Здоровье: 0%

Anonymous

0
0|0

3
0

08 сен 2016, 19:49

Anonymous Перейти к последнему сообщению

В этой теме нет новых непрочитанных сообщений. Скачать торрент Проверен Бойн Джон - Мальчик в полосатой пижаме [Владимир Левашев, 2015, Современная проза, 128 kbps]

в форуме Аудиокниги (AAC, ALAC), Размер: 236.85 МБ, Здоровье: 0%

Anonymous

0
0|0

4
0

28 авг 2016, 18:20

Anonymous Перейти к последнему сообщению

В этой теме нет новых непрочитанных сообщений. Скачать торрент Не отпускай меня / Never Let Me Go (Марк Романек / Mark Romanek) [2010, США, Великобритания, фантастика, триллер, драма, HDRip] DVO + Sub (rus, eng)

в форуме Фантастика, Фэнтези, Размер: 1.46 ГБ, Здоровье: 100%

Anonymous

0
3|1

62
0

12 фев 2014, 08:17

Anonymous Перейти к последнему сообщению

В этой теме нет новых непрочитанных сообщений. Скачать торрент Не отпускай меня / Never let me go (Марк Романек / Mark Romanek) [2010 г., США, Великобритания, драма, мелодрама, BDRip-AVC]

в форуме Драмы, Мелодрамы, Размер: 2.18 ГБ, Здоровье: 100%

Anonymous

0
23|7

35
0

14 апр 2014, 09:28

Anonymous Перейти к последнему сообщению

В этой теме нет новых непрочитанных сообщений. Скачать торрент Проверен [iPad] Не брать живым / Green Zone (Пол Гринграсс / Paul Greengrass ) [2010, Великобритания, Боевик, триллер, драма, военный, BDRip, SD (576p)] DUB + Original + sub (rus, eng)

в форуме Фильмы для iPod, iPhone, iPad, Размер: 2.39 ГБ, Здоровье: 100%

Гость

0
5|2

45
0

18 май 2015, 10:50

Гость Перейти к последнему сообщению



Сейчас этот форум просматривают: нет зарегистрированных пользователей и гости: 1


Вы не можете начинать темы
Вы не можете отвечать на сообщения
Вы не можете редактировать свои сообщения
Вы не можете удалять свои сообщения
Вы не можете добавлять вложения

Перейти:  

!ВНИМАНИЕ!
 Ресурс не предоставляет электронные версии произведений, а занимается лишь коллекционированием и каталогизацией ссылок, присылаемых и публикуемых на форуме нашими читателями. Если вы являетесь правообладателем какого-либо представленного материала и не желаете чтобы ссылка на него находилась в нашем каталоге, свяжитесь с нами и мы незамедлительно удалим её. Файлы для обмена на трекере предоставлены пользователями сайта, и администрация не несёт ответственности за их содержание. Просьба не заливать файлы, защищенные авторскими правами, а также файлы нелегального содержания!