На всех торрентах на трекере установлена скидка на скачивание в размере 100 процентов(а).
 Возможность скачивания торрента НЕ зависит от ограничений при низком ратио, низком аплоаде, требуемом ратио или требуемом аплоаде.


Начать новую тему Ответить на тему
Статистика раздачи
Размер: 3.75 ГБ | Добавлен: 28 мар 2014, 13:51 | Скачали: 0
Сидеров: 0  [0 байт/сек]    Личеров: 0  [0 байт/сек]
Пред. тема | След. тема 

Автор
Сообщение

СообщениеДобавлено: 28 мар 2014, 13:51 

Большой куш
| Snatch |



Название: Большой куш
Оригинальное название: Snatch
Год выхода: 2000
Жанр: триллер, криминал
Режиссер: Гай Ричи

В ролях: Джейсон Стэйтем, Брэд Питт, Бенисио Дель Торо, Стивен Грэм, Алан Форд, Деннис Фарина, Раде Шербеджия, Винни Джонс, Джейсон Флеминг, Майк Рейд, Робби Ги, Ленни Джеймс, Юэн Бремнер, Эд, Уильям Бек, Энди Бекуив, Джейсон Бакхэм, Мики Кентвелл, Никки Коллинз, Тина Коллинз, Чарльз Корк, Джеймс Каннингэм, Сорча Кьюсак, Мики Ди, Сэм Дуглас, Адам Фогерти, Голди, Сид Хоар, Рональд Исаак, Чак Джулиан, Дэйв Леджено, Эрик Мейерс, Джейсон Нинх Као, Пол О’Бойл, Джимми Руссунис, Сидни Седин, Тревор Стидман, Юрий Степанов, Питер Сзакакс, Джон Тахени, Мик Тео, Энди Тилль, Велибор Топик, Скотт Уэлш, Майкл Хьюз, Лайам МакМахон, Джим Уоррен, Остин Д

О фильме:
Четырехпалый Френки должен был переправить краденный алмаз из Англии в США своему боссу Эви. Но вместо этого герой попадает в эпицентр больших неприятностей. Сделав ставку на подпольном боксерском поединке, Френки попадает в круговорот весьма нежелательных событий. Вокруг героя и его груза разворачивается сложная интрига с участием множества колоритных персонажей лондонского дна — русского гангстера, троих незадачливых грабителей, хитрого боксера и угрюмого громилы грозного мафиози. Каждый норовит в одиночку сорвать Большой Куш. А кончается все неожиданным и остроумным финалом.



Страна: Великобритания, США
Студия: Columbia Pictures Corporation, SKA Films
Продолжительность: 01:42:47
Перевод: Профессиональный многоголосый, авторский


Кодек: h.264
Качество: BDRip-AVC
Видео: 1827 Кбит/с, 1024x554, 23.976 кадр/с

Звук:
• №1: Русский (AC3, 6 ch, 320 Кбит/с) Профессиональный многоголосый [R5/Киномания]
• №2: Русский (AC3, 6 ch, 384 Кбит/с) Авторский [Андрей Гаврилов]
• №3: Русский (AC3, 6 ch, 384 Кбит/с) Авторский [Дмитрий "Гоблин" Пучков, 2001 г., ненормативная лексика]
• №4: Английский (AC3, 6 ch, 384 Кбит/с)
Отдельно:
• №5: Русский (AC3, 6 ch, 384 Кбит/с) Профессиональный многоголосый [ОРТ, VHS]
• №6: Русский (AC3, 6 ch, 384 Кбит/с) Авторский [Юрий Живов]
• №7: Русский (AC3, 6 ch, 384 Кбит/с) Авторский (Дмитрий "Гоблин" Пучков, 2004 г.]
• №8: Русский (AC3, 6 ch, 384 Кбит/с) Авторский [Сергей Рябов]
• №9: Украинский (AC3, 6 ch, 384 Кбит/с) Профессиональный многоголосый [Канал "К1"]

Субтитры:
• №1: Русские [форсированные]
• №2: Русские [полные]
• №3: Русские [Позитив, форсированные]
• №4: Русские [Позитив, полные]
• №5: Русские [Гоблин]
• №6: Английские [форсированные]
• №7: Английские [полные]


--------------------------------------------------------------------------------------
x264 [info]: frame I:1235 Avg QP:15.10 size: 98996
x264 [info]: frame P:35055 Avg QP:18.82 size: 22247
x264 [info]: frame B:111551 Avg QP:20.86 size: 4522
x264 [info]: consecutive B-frames: 3.0% 4.7% 11.5% 17.9% 20.6% 34.1% 4.8% 2.1% 0.5% 0.3% 0.2% 0.3%
--------------------------------------------------------------------------------------

Полное имя : Snatch.2000.x264.BDRip-AVC.0ptimus.mkv
Формат : Matroska
Версия формата : Version 2
Размер файла : 2,37 Гбайт
Продолжительность : 1 ч. 42 м.
Общий поток : 3300 Кбит/сек
Название фильма : Большой куш | Snatch [2000] -= BDRip (AVC) by 0ptimus =-
Дата кодирования : UTC 2014-03-24 05:53:44
Программа кодирования : mkvmerge v6.6.0 ('The Edge Of The In Between') built on Dec 1 2013 17:55:00
Библиотека кодирования : libebml v1.3.0 + libmatroska v1.4.1
Attachment : Yes

Видео
Идентификатор : 1
Формат : AVC
Формат/Информация : Advanced Video Codec
Профиль формата : High@L4.1
Параметр CABAC формата : Да
Параметр ReFrames формата : 9 кадров
Идентификатор кодека : V_MPEG4/ISO/AVC
Продолжительность : 1 ч. 42 м.
Битрейт : 1827 Кбит/сек
Ширина : 1024 пикселя
Высота : 554 пикселя
Соотношение сторон : 1,85:1
Режим частоты кадров : Постоянный
Частота кадров : 23,976 кадра/сек
Цветовое пространство : YUV
Субдискретизация насыщенности : 4:2:0
Битовая глубина : 8 бит
Тип развёртки : Прогрессивная
Бит/(Пиксели*Кадры) : 0.134
Размер потока : 1,27 Гбайт (53%)
Заголовок : Rip by 0ptimus
Библиотека кодирования : x264 core 133 r2334 a3ac64b
Настройки программы : cabac=1 / ref=9 / deblock=1:-3:-3 / analyse=0x3:0x113 / me=umh / subme=10 / psy=1 / psy_rd=1.00:0.20 / mixed_ref=1 / me_range=32 / chroma_me=1 / trellis=2 / 8x8dct=1 / cqm=0 / deadzone=21,11 / fast_pskip=0 / chroma_qp_offset=-3 / threads=4 / lookahead_threads=1 / sliced_threads=0 / nr=0 / decimate=0 / interlaced=0 / bluray_compat=0 / constrained_intra=0 / bframes=11 / b_pyramid=2 / b_adapt=2 / b_bias=0 / direct=3 / weightb=1 / open_gop=0 / weightp=2 / keyint=240 / keyint_min=23 / scenecut=40 / intra_refresh=0 / rc_lookahead=40 / rc=2pass / mbtree=0 / bitrate=1827 / ratetol=1.0 / qcomp=0.60 / qpmin=0 / qpmax=69 / qpstep=4 / cplxblur=20.0 / qblur=0.5 / vbv_maxrate=50000 / vbv_bufsize=50000 / nal_hrd=none / ip_ratio=1.40 / pb_ratio=1.30 / aq=1:1.00
Язык : English
Default : Да
Forced : Да

Аудио #1
Идентификатор : 2
Формат : AC-3
Формат/Информация : Audio Coding 3
Расширение режима : CM (complete main)
Параметр Endianness формата : Big
Идентификатор кодека : A_AC3
Продолжительность : 1 ч. 42 м.
Вид битрейта : Постоянный
Битрейт : 320 Кбит/сек
Каналы : 6 каналов
Расположение каналов : Front: L C R, Side: L R, LFE
Частота : 48,0 КГц
Битовая глубина : 16 бит
Метод сжатия : С потерями
Размер потока : 235 Мбайт (10%)
Заголовок : Многоголосый закадровй [R5/Киномания] AC3 5.1 @ 384 kbps
Язык : Russian
Default : Да
Forced : Да

Аудио #2
Идентификатор : 3
Формат : AC-3
Формат/Информация : Audio Coding 3
Расширение режима : CM (complete main)
Параметр Endianness формата : Big
Идентификатор кодека : A_AC3
Продолжительность : 1 ч. 42 м.
Вид битрейта : Постоянный
Битрейт : 384 Кбит/сек
Каналы : 6 каналов
Расположение каналов : Front: L C R, Side: L R, LFE
Частота : 48,0 КГц
Битовая глубина : 16 бит
Метод сжатия : С потерями
Размер потока : 282 Мбайт (12%)
Заголовок : Авторский [Андрей Гаврилов] AC3 5.1 @ 384 kbps
Язык : Russian
Default : Нет
Forced : Нет

Аудио #3
Идентификатор : 4
Формат : AC-3
Формат/Информация : Audio Coding 3
Расширение режима : CM (complete main)
Параметр Endianness формата : Big
Идентификатор кодека : A_AC3
Продолжительность : 1 ч. 42 м.
Вид битрейта : Постоянный
Битрейт : 384 Кбит/сек
Каналы : 6 каналов
Расположение каналов : Front: L C R, Side: L R, LFE
Частота : 48,0 КГц
Битовая глубина : 16 бит
Метод сжатия : С потерями
Размер потока : 282 Мбайт (12%)
Заголовок : Авторский [Дмитрий "Гоблин" Пучков, ненормативная лексика, 2001] AC3 5.1 @ 384 kbps
Язык : Russian
Default : Нет
Forced : Нет

Аудио #4
Идентификатор : 5
Формат : AC-3
Формат/Информация : Audio Coding 3
Расширение режима : CM (complete main)
Параметр Endianness формата : Big
Идентификатор кодека : A_AC3
Продолжительность : 1 ч. 42 м.
Вид битрейта : Постоянный
Битрейт : 384 Кбит/сек
Каналы : 6 каналов
Расположение каналов : Front: L C R, Side: L R, LFE
Частота : 48,0 КГц
Битовая глубина : 16 бит
Метод сжатия : С потерями
Размер потока : 282 Мбайт (12%)
Заголовок : AC3 5.1 @ 384 kbps
Язык : English
Default : Нет
Forced : Нет

Текст #1
Идентификатор : 6
Формат : UTF-8
Идентификатор кодека : S_TEXT/UTF8
Идентификатор кодека/Информация : UTF-8 Plain Text
Заголовок : Форсированные
Язык : Russian
Default : Нет
Forced : Нет

Текст #2
Идентификатор : 7
Формат : UTF-8
Идентификатор кодека : S_TEXT/UTF8
Идентификатор кодека/Информация : UTF-8 Plain Text
Язык : Russian
Default : Нет
Forced : Нет

Текст #3
Идентификатор : 8
Формат : UTF-8
Идентификатор кодека : S_TEXT/UTF8
Идентификатор кодека/Информация : UTF-8 Plain Text
Заголовок : Форсированные [Позитив]
Язык : Russian
Default : Нет
Forced : Нет

Текст #4
Идентификатор : 9
Формат : UTF-8
Идентификатор кодека : S_TEXT/UTF8
Идентификатор кодека/Информация : UTF-8 Plain Text
Заголовок : [Позитив]
Язык : Russian
Default : Нет
Forced : Нет

Текст #5
Идентификатор : 10
Формат : UTF-8
Идентификатор кодека : S_TEXT/UTF8
Идентификатор кодека/Информация : UTF-8 Plain Text
Заголовок : [Гоблин]
Язык : Russian
Default : Нет
Forced : Нет

Текст #6
Идентификатор : 11
Формат : UTF-8
Идентификатор кодека : S_TEXT/UTF8
Идентификатор кодека/Информация : UTF-8 Plain Text
Заголовок : Forced
Язык : English
Default : Нет
Forced : Нет

Текст #7
Идентификатор : 12
Формат : UTF-8
Идентификатор кодека : S_TEXT/UTF8
Идентификатор кодека/Информация : UTF-8 Plain Text
Язык : English
Default : Нет
Forced : Нет

Меню
00:00:00.000 : en:Start; Diamond Snatch
00:06:58.293 : en:Turkish & Tommy; Brick Top
00:11:53.546 : en:Boris & His Brother; Avi; Doug the Head
00:16:31.741 : en:Burying a Caravan; Gypsy Bare-Knuckle Champ
00:22:47.908 : en:Sol; Tyrone & His Getaway Car
00:30:03.218 : en:Replacement Fighter; A Dive in the Fourth
00:36:27.936 : en:All Bets Are Off; One-Punch Mickey
00:41:39.414 : en:A Problem
00:48:16.393 : en:Mickey's Offer
00:53:13.607 : en:Not a Bad Moment?
00:59:06.293 : en:Bullet-Tooth Tony; Brick Top's Persuasion
01:07:47.105 : en:A Hard Man to Track Down; All Roads Lead to Boris
01:13:24.525 : en:Desert Eagle vs. Replica; Russian Standoff
01:19:09.536 : en:Predictability of Stupidity; “Look in the Dog.”
01:28:12.579 : en:“Do Not Knock Him Out.”
01:33:58.341 : en:Action & Reaction



Релиз от:
загрузка...
Правила, инструкции, FAQ!!!
Торрент  Добавлен [28 мар 2014, 13:51] Скачать торрент
Скачать торрент
[ Размер 38.96 КБ / Просмотров 12 ]

Статус  
 
Размер  3.75 ГБ
Приватный: Нет (DHT включён)
.torrent скачан  0
Как залить торрент? | Как скачать Torrent? | Как смотреть и слушать онлайн?  


     Отправить личное сообщение
   
Страница 1 из 1
Показать сообщения за:  Поле сортировки  
Начать новую тему Ответить на тему

   Похожие торренты   Автор   Ответы   Просмотры   Последнее сообщение 
В этой теме нет новых непрочитанных сообщений. Скачать торрент Проверен [480x360] Большой куш / Snatch (2000) BDRip

в форуме Видео для смартфонов и КПК, Размер: 658.66 МБ, Здоровье: 100%

Anonymous

0
2|2

69
0

25 окт 2014, 23:27

Anonymous Перейти к последнему сообщению

В этой теме нет новых непрочитанных сообщений. Скачать торрент Большой куш / Snatch. (2000) BDRip 1080р

в форуме 720p | 1080p, Размер: 5.89 ГБ, Здоровье: 100%

Anonymous

0
30|2

47
338

28 мар 2014, 13:47

Anonymous Перейти к последнему сообщению

В этой теме нет новых непрочитанных сообщений. Скачать торрент Большой куш / Snatch (2000) BDRip 720p

в форуме 720p | 1080p, Размер: 5.82 ГБ, Здоровье: 100%

Anonymous

0
56|2

44
727

28 мар 2014, 13:43

Anonymous Перейти к последнему сообщению

В этой теме нет новых непрочитанных сообщений. Скачать торрент Проверен Большой куш / Snatch. (Гай Ричи / Guy Ritchie) [2000, Великобритания, США, триллер, криминал, BDRip, 480p] MVO R5 + AVO Гоблин (2004) + Original + sub (rus, eng)

в форуме Фильмы для iPod, iPhone, iPad, Размер: 1.35 ГБ, Здоровье: 100%

Гость

0
57|19

44
1

12 май 2015, 00:06

Гость Перейти к последнему сообщению

В этой теме нет новых непрочитанных сообщений. Скачать торрент Проверен [iPod] Большой куш / Snatch / Спиздили [ Goblin , 2000, Гай Ритчи / Guy Ritchie]

в форуме Фильмы для iPod, iPhone, iPad, Размер: 358.3 МБ, Здоровье: 100%

Anonymous

0
11|5

35
0

14 май 2015, 00:25

Anonymous Перейти к последнему сообщению



Сейчас этот форум просматривают: нет зарегистрированных пользователей и гости: 1


Вы не можете начинать темы
Вы не можете отвечать на сообщения
Вы не можете редактировать свои сообщения
Вы не можете удалять свои сообщения
Вы не можете добавлять вложения

Перейти:  

!ВНИМАНИЕ!
 Ресурс не предоставляет электронные версии произведений, а занимается лишь коллекционированием и каталогизацией ссылок, присылаемых и публикуемых на форуме нашими читателями. Если вы являетесь правообладателем какого-либо представленного материала и не желаете чтобы ссылка на него находилась в нашем каталоге, свяжитесь с нами и мы незамедлительно удалим её. Файлы для обмена на трекере предоставлены пользователями сайта, и администрация не несёт ответственности за их содержание. Просьба не заливать файлы, защищенные авторскими правами, а также файлы нелегального содержания!