На всех торрентах на трекере установлена скидка на скачивание в размере 100 процентов(а).
 Возможность скачивания торрента НЕ зависит от ограничений при низком ратио, низком аплоаде, требуемом ратио или требуемом аплоаде.


Начать новую тему Ответить на тему
Статистика раздачи
Размер: 1.46 ГБ | Добавлен: 28 мар 2014, 13:38 | Скачали: 0
Сидеров: 0  [0 байт/сек]    Личеров: 0  [0 байт/сек]
Пред. тема | След. тема 

Автор
Сообщение

СообщениеДобавлено: 28 мар 2014, 13:38 

Название: Убойное чтиво
Оригинальное название: Stranger Than Fiction
Год выхода: 2000
Жанр: триллер, комедия
Режиссер: Эрик Бросс / Eric Bross

В ролях: МакКензи Эстин, Тодд Филд, Дина Мейер, Наташа Грегсон Вагнер, Майкл Флинн, Стив О’Нилл, Скотт Субионо, Джо Ангер, Фрэнсис Бэй, Роберт Льюис

О фильме:
Джаред, Остин, Эмма и Виолет — веселая компания неразлучных друзей, все свободное время проводящих вместе. Ночью к Остину приходит перепачканный кровью Джаред и рассказывает, что в драке он убил человека и теперь не знает, что ему делать. Но зачем тогда существуют друзья? Собравшись вместе, они решают «прикрыть» Джареда и помочь ему избавиться от трупа. Но, как это часто бывает, благие намерения приводят к совершенно противоположному результату — за одним убийством следуют другие и скоро ситуация выходит из-под их контроля…
Развязка будет непредсказуемой!



Страна: США
Продолжительность: 01:36:05
Перевод: Профессиональный (многоголосый закадровый)


Качество: DVDRip [исх. DVD5]
Формат файла: AVI
Видео кодек: XviD
Аудио кодек: AC3
Видео: 640x480 (1.33:1), 25 fps, XviD build 50 ~1978 kbps avg, 0.26 bit/pixel
Звук: 48 kHz, AC3 Dolby Digital, 2/0 (L,R) ch, ~192 kbps



DownloadsStranger_Than_Fiction_2000.DVDRip.avi
Format : AVI
Format/Info : Audio Video Interleave
File size : 1.46 GiB
Duration : 1h 36mn
Overall bit rate : 2 180 Kbps
Writing application : VirtualDubMod 1.5.10.3 | http://www.virtualdub-fr.org || (build 2550/release)
Writing library : VirtualDubMod build 2550/release

Video
ID : 0
Format : MPEG-4 Visual
Format profile : Advanced Simple@L5
Format settings, BVOP : 3
Format settings, QPel : No
Format settings, GMC : No warppoints
Format settings, Matrix : Default (H.263)
Codec ID : XVID
Codec ID/Hint : XviD
Duration : 1h 36mn
Bit rate : 1 978 Kbps
Width : 640 pixels
Height : 480 pixels
Display aspect ratio : 4:3
Frame rate : 25.000 fps
Color space : YUV
Chroma subsampling : 4:2:0
Bit depth : 8 bits
Scan type : Progressive
Compression mode : Lossy
Bits/(Pixel*Frame) : 0.258
Stream size : 1.33 GiB (91%)
Writing library : XviD 1.2.1 (UTC 2008-12-04)

Audio
ID : 1
Format : AC-3
Format/Info : Audio Coding 3
Mode extension : CM (complete main)
Format settings, Endianness : Big
Codec ID : 2000
Duration : 1h 36mn
Bit rate mode : Constant
Bit rate : 192 Kbps
Channel(s) : 2 channels
Channel positions : Front: L R
Sampling rate : 48.0 KHz
Bit depth : 16 bits
Compression mode : Lossy
Stream size : 132 MiB (9%)
Alignment : Split accross interleaves
Interleave, duration : 40 ms (1.00 video frame)
Interleave, preload duration : 500 ms


Релиз от:
загрузка...
Правила, инструкции, FAQ!!!
Торрент  Добавлен [28 мар 2014, 13:38] Скачать торрент
Скачать торрент
[ Размер 15.15 КБ / Просмотров 7 ]

Статус  
 
Размер  1.46 ГБ
Приватный: Нет (DHT включён)
.torrent скачан  0
Как залить торрент? | Как скачать Torrent? | Как смотреть и слушать онлайн?  


     Отправить личное сообщение
   
Страница 1 из 1
Показать сообщения за:  Поле сортировки  
Начать новую тему Ответить на тему

   Похожие торренты   Автор   Ответы   Просмотры   Последнее сообщение 
В этой теме нет новых непрочитанных сообщений. Скачать торрент Проверен [iPhone] Персонаж / Stranger Than Fiction (Марк Форстер) [2006, фэнтези, мелодрама, драма, DVDRip]

в форуме Фильмы для iPod, iPhone, iPad, Размер: 472.83 МБ, Здоровье: 100%

Anonymous

0
2|1

24
0

18 май 2015, 10:52

Anonymous Перейти к последнему сообщению

В этой теме нет новых непрочитанных сообщений. Скачать торрент Проверен [iPad] Криминальное чтиво / Pulp Fiction (Квентин Тарантино / Quentin Tarantino) [1994 г., драма, криминал, BDRip, 720p]

в форуме Фильмы для iPod, iPhone, iPad, Размер: 3.71 ГБ, Здоровье: 100%

Гость

0
54|18

24
1

11 май 2015, 01:31

Гость Перейти к последнему сообщению

В этой теме нет новых непрочитанных сообщений. Скачать торрент Персонаж (Нелепей вымысла) / Stranger Than Fiction (Марк Форстер) [720p/DVD5+1080p/DVD9] [2006 г., фэнтези, драма, BD Rip]

в форуме 720p | 1080p, Размер: 13.12 ГБ, Здоровье: 0%

Anonymous

0
0|0

21
0

25 фев 2014, 22:41

Anonymous Перейти к последнему сообщению

В этой теме нет новых непрочитанных сообщений. Скачать торрент Проверен (Hard Rock) Fiction - Fiction [EP] - 2016, MP3, 320 kbps

в форуме Classic Rock & Hard Rock, Размер: 71.5 МБ, Здоровье: 0%

Anonymous

0
0|0

0
0

14 ноя 2016, 17:56

Anonymous Перейти к последнему сообщению

В этой теме нет новых непрочитанных сообщений. Скачать торрент Книжная серия | Science Fiction [45 книг] (1992–2000) [FB2, DOC]

в форуме Многоавторские сборники, Размер: 76.59 МБ, Здоровье: 100%

Anonymous

0
147|21

119
5

24 дек 2013, 11:56

Anonymous Перейти к последнему сообщению



Сейчас этот форум просматривают: нет зарегистрированных пользователей и гости: 4


Вы не можете начинать темы
Вы не можете отвечать на сообщения
Вы не можете редактировать свои сообщения
Вы не можете удалять свои сообщения
Вы не можете добавлять вложения

Перейти:  

!ВНИМАНИЕ!
 Ресурс не предоставляет электронные версии произведений, а занимается лишь коллекционированием и каталогизацией ссылок, присылаемых и публикуемых на форуме нашими читателями. Если вы являетесь правообладателем какого-либо представленного материала и не желаете чтобы ссылка на него находилась в нашем каталоге, свяжитесь с нами и мы незамедлительно удалим её. Файлы для обмена на трекере предоставлены пользователями сайта, и администрация не несёт ответственности за их содержание. Просьба не заливать файлы, защищенные авторскими правами, а также файлы нелегального содержания!