На всех торрентах на трекере установлена скидка на скачивание в размере 100 процентов(а).
 Возможность скачивания торрента НЕ зависит от ограничений при низком ратио, низком аплоаде, требуемом ратио или требуемом аплоаде.


Начать новую тему Ответить на тему
Статистика раздачи
Размер: 1.35 ГБ | Добавлен: 24 мар 2014, 23:24 | Скачали: 0
Сидеров: 0  [0 байт/сек]    Личеров: 0  [0 байт/сек]
Пред. тема | След. тема 

Автор
Сообщение

СообщениеДобавлено: 24 мар 2014, 23:24 

Название: В страхе
Оригинальное название: In Fear
Год выхода: 2013
Жанр: триллер
Режиссер: Джереми Лавринг

В ролях: Йен де Кестекер, Элис Энглерт, Аллен Лич

О фильме:
Застигнутый ночью в пути, замученный и потерянный, ты невольно даешь волю своим вечным страхам. Ведь в темноте таятся неведомые опасности. Но главный вызов — не дать соблазну и злу проникнуть в душу. Или, возможно, оно уже там. Том и Люси, недавно познакомились, и решили поехать загород на музыкальный фестиваль. Но не найдя отель, в котором забронировали номер, они заблудились в чаще леса, батарейки в навигаторе и телефоне сели и вот уже глубокой холодной ночью они слишком поздно поняли — из леса за ними кто-то наблюдает и хочет убить.



Страна: Великобритания
Продолжительность: 01:24:53
Перевод: Любительское (одноголосое) [ХиХиДок]


Кодек: Xvid
Качество: HDRip [Рипс BDRip 720p]
Видео: 2 079 Kbps, 720x306
Звук: MP3, 192 kb/s (2 ch)







General
Complete name : E:FilmsIn.Fear.2013.HDRip.avi
Format : AVI
Format/Info : Audio Video Interleave
File size : 1.35 GiB
Duration : 1h 24mn
Overall bit rate : 2 280 Kbps
Writing library : VirtualDub build 35491/release

Video
ID : 0
Format : MPEG-4 Visual
Format profile : Advanced Simple@L5
Format settings, BVOP : 2
Format settings, QPel : No
Format settings, GMC : No warppoints
Format settings, Matrix : Default (H.263)
Muxing mode : Packed bitstream
Codec ID : XVID
Codec ID/Hint : XviD
Duration : 1h 24mn
Bit rate : 2 079 Kbps
Width : 720 pixels
Height : 306 pixels
Display aspect ratio : 2.35:1
Frame rate : 23.976 fps
Color space : YUV
Chroma subsampling : 4:2:0
Bit depth : 8 bits
Scan type : Progressive
Compression mode : Lossy
Bits/(Pixel*Frame) : 0.394
Stream size : 1.23 GiB (91%)
Writing library : XviD 64

Audio
ID : 1
Format : MPEG Audio
Format version : Version 1
Format profile : Layer 3
Mode : Joint stereo
Codec ID : 55
Codec ID/Hint : MP3
Duration : 1h 24mn
Bit rate mode : Constant
Bit rate : 192 Kbps
Channel(s) : 2 channels
Sampling rate : 44.1 KHz
Compression mode : Lossy
Stream size : 116 MiB (8%)
Alignment : Split accross interleaves
Interleave, duration : 42 ms (1.00 video frame)
Interleave, preload duration : 500 ms
загрузка...
Правила, инструкции, FAQ!!!
Торрент  Добавлен [24 мар 2014, 23:24] Скачать торрент
Скачать торрент
[ Размер 14.02 КБ / Просмотров 4 ]

Статус  
 
Размер  1.35 ГБ
Приватный: Нет (DHT включён)
.torrent скачан  0
Как залить торрент? | Как скачать Torrent? | Как смотреть и слушать онлайн?  


     Отправить личное сообщение
   
Страница 1 из 1
Показать сообщения за:  Поле сортировки  
Начать новую тему Ответить на тему

   Похожие торренты   Автор   Ответы   Просмотры   Последнее сообщение 
В этой теме нет новых непрочитанных сообщений. Скачать торрент В страхе / In Fear (2013) BDRip 720p | L1

в форуме 720p | 1080p, Размер: 3.39 ГБ, Здоровье: 100%

Anonymous

0
11|2

21
279

23 мар 2014, 22:28

Anonymous Перейти к последнему сообщению

В этой теме нет новых непрочитанных сообщений. Скачать торрент В страхе / In Fear (2013) BDRip 1080p | L1

в форуме 720p | 1080p, Размер: 5.57 ГБ, Здоровье: 100%

Anonymous

0
2|0

20
39

23 мар 2014, 22:31

Anonymous Перейти к последнему сообщению

В этой теме нет новых непрочитанных сообщений. Скачать торрент Проверен Страх и ненависть в Лас-Вегасе / Fear and Loathing in Las Vegas (1998) HDRip | P

в форуме Фантастика, Фэнтези, Размер: 1.45 ГБ, Здоровье: 100%

Anonymous

0
231|10

55
2699

12 авг 2014, 21:35

Anonymous Перейти к последнему сообщению

В этой теме нет новых непрочитанных сообщений. Скачать торрент Проверен (Heavy Metal) Beyond Fear-Beyond Fear - 2006, APE (image+.cue), lossless

в форуме Heavy, Power, Progressive (Metal), Размер: 351.59 МБ, Здоровье: 0%

Anonymous

0
0|0

0
0

11 окт 2016, 20:34

Anonymous Перейти к последнему сообщению

В этой теме нет новых непрочитанных сообщений. Скачать торрент Проверен Fear Not - Fear Not (1993) [MP3|192 кб/с]<Hard Rock>

в форуме Рок, Панк, Метал, Альтернатива, Размер: 60.6 МБ, Здоровье: 100%

Anonymous

0
145|3

40
0

29 июл 2014, 22:17

Anonymous Перейти к последнему сообщению



Сейчас этот форум просматривают: нет зарегистрированных пользователей и гости: 2


Вы не можете начинать темы
Вы не можете отвечать на сообщения
Вы не можете редактировать свои сообщения
Вы не можете удалять свои сообщения
Вы не можете добавлять вложения

Перейти:  

!ВНИМАНИЕ!
 Ресурс не предоставляет электронные версии произведений, а занимается лишь коллекционированием и каталогизацией ссылок, присылаемых и публикуемых на форуме нашими читателями. Если вы являетесь правообладателем какого-либо представленного материала и не желаете чтобы ссылка на него находилась в нашем каталоге, свяжитесь с нами и мы незамедлительно удалим её. Файлы для обмена на трекере предоставлены пользователями сайта, и администрация не несёт ответственности за их содержание. Просьба не заливать файлы, защищенные авторскими правами, а также файлы нелегального содержания!