На всех торрентах на трекере установлена скидка на скачивание в размере 100 процентов(а).
 Возможность скачивания торрента НЕ зависит от ограничений при низком ратио, низком аплоаде, требуемом ратио или требуемом аплоаде.


Начать новую тему Ответить на тему
Статистика раздачи
Размер: 1.45 ГБ | Добавлен: 09 мар 2014, 10:23 | Скачали: 0
Сидеров: 0  [0 байт/сек]    Личеров: 1  [0 байт/сек]
Пред. тема | След. тема 

Автор
Сообщение

СообщениеДобавлено: 09 мар 2014, 10:23 

Название: Расчет
Оригинальное название: The Clearing
Год выхода: 2004
Жанр: триллер, драма, криминал
Режиссер: Питер Жан Брюгге

В ролях: Роберт Редфорд, Хелен Миррен, Уиллем Дефо, Алессандро Нивола, Мэтт Крэвен, Мелисса Сейджмиллер, Венди Крюсон, Ларри Пайн, Дайана Скаруид, Элизабет Руссо

О фильме: Уэйн и Эйлин Хэйес — образцовая американская семья. У них двое прекрасных детей и вполне успешный бизнес, который они поднимали вместе с нуля. Но жизнь уготовила супружеской паре суровое испытание. Однажды Уэйна похищают. Человек, спрятавший его в лесу, обычный обыватель Арнольд Мэк, находящийся на грани отчаяния и уставший от безденежья и нищеты, решил получить большой выкуп…



Страна: США, Германия
Продолжительность: 01:34:26
Перевод: Профессиональный (многоголосый закадровый)


Кодек: x.264
Качество: BDRip-AVC
Видео: 1024x560 (1,85:1), 23,976 fps, 1816 kbps, 0.132 bit/pixel
Звук: 48 kHz, AC3 Dolby Digital, 6 ch, ~384.00 kbps

&

Общее
Уникальный идентификатор : 181215212882555026709863570641389699202 (0x8854C7CDFD572DCF9F31B549D5B14082)
Полное имя : D:The Clearing.2004.BDRip-AVC.mkv
Формат : Matroska
Версия формата : Version 2
Размер файла : 1,45 Гбайт
Продолжительность : 1 ч. 34 м.
Общий поток : 2199 Кбит/сек
Название фильма : Расчет / The Clearing (2004) BDRip-AVC rip by Rulya74
Дата кодирования : UTC 2014-03-02 13:27:42
Программа кодирования : mkvmerge v4.9.1 ('Ich will') зібрано Jul 11 2011 23:53:15
Библиотека кодирования : libebml v1.2.1 + libmatroska v1.1.1

Видео
Идентификатор : 1
Формат : AVC
Формат/Информация : Advanced Video Codec
Профиль формата : High@L4.1
Параметр CABAC формата : Да
Параметр ReFrames формата : 12 кадров
Идентификатор кодека : V_MPEG4/ISO/AVC
Продолжительность : 1 ч. 34 м.
Битрейт : 1816 Кбит/сек
Ширина : 1024 пикселя
Высота : 560 пикселей
Соотношение сторон : 1,85:1
Режим частоты кадров : Постоянный
Частота кадров : 23,976 кадра/сек
Цветовое пространство : YUV
Субдискретизация насыщенности : 4:2:0
Битовая глубина : 8 бит
Тип развёртки : Прогрессивная
Бит/(Пиксели*Кадры) : 0.132
Размер потока : 1,17 Гбайт (81%)
Библиотека кодирования : x264 core 138 r2358 9e941d1
Настройки программы : cabac=1 / ref=12 / deblock=1:-3:-3 / analyse=0x3:0x102 / me=umh / subme=11 / psy=1 / psy_rd=1.00:0.00 / mixed_ref=1 / me_range=48 / chroma_me=1 / trellis=2 / 8x8dct=1 / cqm=0 / deadzone=21,11 / fast_pskip=0 / chroma_qp_offset=-2 / threads=4 / lookahead_threads=1 / sliced_threads=0 / nr=0 / decimate=1 / interlaced=0 / bluray_compat=0 / constrained_intra=0 / bframes=8 / b_pyramid=2 / b_adapt=1 / b_bias=0 / direct=3 / weightb=1 / open_gop=0 / weightp=2 / keyint=240 / keyint_min=23 / scenecut=40 / intra_refresh=0 / rc_lookahead=40 / rc=2pass / mbtree=1 / bitrate=1816 / ratetol=1.0 / qcomp=0.60 / qpmin=0 / qpmax=69 / qpstep=4 / cplxblur=20.0 / qblur=0.5 / vbv_maxrate=62500 / vbv_bufsize=78125 / nal_hrd=none / ip_ratio=1.40 / aq=1:1.00
Default : Да
Forced : Нет

Аудио
Идентификатор : 2
Формат : AC-3
Формат/Информация : Audio Coding 3
Расширение режима : CM (complete main)
Параметр Endianness формата : Big
Идентификатор кодека : A_AC3
Продолжительность : 1 ч. 34 м.
Вид битрейта : Постоянный
Битрейт : 384 Кбит/сек
Каналы : 6 каналов
Расположение каналов : Front: L C R, Side: L R, LFE
Частота : 48,0 КГц
Битовая глубина : 16 бит
Метод сжатия : С потерями
Размер потока : 259 Мбайт (17%)
Заголовок : Профессиональный (многоголосый закадровый)
Язык : Russian
Default : Да
Forced : Нет

загрузка...
Правила, инструкции, FAQ!!!
Торрент  Добавлен [09 мар 2014, 10:23] Скачать торрент
Скачать торрент
[ Размер 15.11 КБ / Просмотров 14 ]

Статус  
 
Размер  1.45 ГБ
Приватный: Нет (DHT включён)
.torrent скачан  0
Как залить торрент? | Как скачать Torrent? | Как смотреть и слушать онлайн?  


     Отправить личное сообщение
   
Страница 1 из 1
Показать сообщения за:  Поле сортировки  
Начать новую тему Ответить на тему

   Похожие торренты   Автор   Ответы   Просмотры   Последнее сообщение 
В этой теме нет новых непрочитанных сообщений. Скачать торрент Расчёт / The Clearing (2004) BDRip 720p | P, A

в форуме 720p | 1080p, Размер: 5.31 ГБ, Здоровье: 0%

Anonymous

0
0|0

44
0

09 мар 2014, 10:20

Anonymous Перейти к последнему сообщению

В этой теме нет новых непрочитанных сообщений. Скачать торрент Проверен Как сделать гидравлический расчет отопления / Как сделать гидравлический расчет отопления [2011, DVDRip, RUS] (Видеоурок)

в форуме Строительство, ремонт и дизайн, Размер: 591.85 МБ, Здоровье: 100%

Anonymous

0
57|12

15
3

24 янв 2016, 09:29

Anonymous Перейти к последнему сообщению

В этой теме нет новых непрочитанных сообщений. Скачать торрент Проверен Хьелль Ола Даль | Последний расчет (2015) [FB2]

в форуме Детективы и Боевики, Размер: 1.3 МБ, Здоровье: 100%

Гость

0
1|1

18
3

21 июн 2015, 01:21

Гость Перейти к последнему сообщению

В этой теме нет новых непрочитанных сообщений. Скачать торрент Проверен [iPod Audiobook]- Сидни Шелдон - ТОНКИЙ РАСЧЕТ -m4b

в форуме Аудиокниги (AAC, ALAC), Размер: 290.6 МБ, Здоровье: 100%

Anonymous

0
1|0

2
0

28 авг 2016, 16:05

Anonymous Перейти к последнему сообщению

В этой теме нет новых непрочитанных сообщений. Скачать торрент Проверен Криворучко П. - Расчет кармического статуса планет [2007, PDF, RUS]

в форуме Астрология, Размер: 777.46 КБ, Здоровье: 0%

Anonymous

0
0|0

7
0

11 сен 2016, 23:24

Anonymous Перейти к последнему сообщению



Сейчас этот форум просматривают: нет зарегистрированных пользователей и гости: 2


Вы не можете начинать темы
Вы не можете отвечать на сообщения
Вы не можете редактировать свои сообщения
Вы не можете удалять свои сообщения
Вы не можете добавлять вложения

Перейти:  

!ВНИМАНИЕ!
 Ресурс не предоставляет электронные версии произведений, а занимается лишь коллекционированием и каталогизацией ссылок, присылаемых и публикуемых на форуме нашими читателями. Если вы являетесь правообладателем какого-либо представленного материала и не желаете чтобы ссылка на него находилась в нашем каталоге, свяжитесь с нами и мы незамедлительно удалим её. Файлы для обмена на трекере предоставлены пользователями сайта, и администрация не несёт ответственности за их содержание. Просьба не заливать файлы, защищенные авторскими правами, а также файлы нелегального содержания!