На всех торрентах на трекере установлена скидка на скачивание в размере 100 процентов(а).
 Возможность скачивания торрента НЕ зависит от ограничений при низком ратио, низком аплоаде, требуемом ратио или требуемом аплоаде.


Начать новую тему Ответить на тему
Статистика раздачи
Размер: 1.37 ГБ | Добавлен: 24 дек 2012, 09:11 | Скачали: 0
Сидеров: 0  [0 байт/сек]    Личеров: 0  [0 байт/сек]
Пред. тема | След. тема 

Автор
Сообщение

СообщениеДобавлено: 24 дек 2012, 09:11 

Название: Самаритянин
Оригинальное название: The Samaritan
Год выхода: 2012
Жанр: триллер
Режиссер: Дэвид Уивер
В ролях: Сэмюэл Л. Джексон, Люк Кирби, Рут Негга, Том Уилкинсон, Джил Беллоуз, Аарон Пул, Том МакКэмус, Марта Барнс, Стефен Макинтайр, Алан С. Петерсон

Описание: В центре повествования — мошенник, который отсидел за свои преступления 20 лет и решил завязать. Он встречает молодую женщину, с которой хотел бы иметь совместное будущее, а тут к нему подкатывает сын бывшего подельника, который уговаривает его на последнее дело.



Продолжительность: 01:33:09
Перевод: Авторский - А. Дольский
Субтитры: нет



Качество: HDRip
Формат: AVI
Видео кодек: XviD
Аудио кодек: AC3
Видео: XviD, 1650 Кбит/с, 720x400
Аудио Rus: AC3, 448 kb/s (6 ch)

Полное имя : D:Samarityanin.2012.P1.HDRip.1400MB.avi
Формат : AVI
Формат/Информация : Audio Video Interleave
Размер файла : 1,37 Гбайт
Продолжительность : 1 ч. 33 м.
Общий поток : 2110 Кбит/сек
Программа кодирования : VirtualDubMod 1.5.10.2 (build 2540/release)
Библиотека кодирования : VirtualDubMod build 2540/release

Видео
Идентификатор : 0
Формат : MPEG-4 Visual
Профиль формата : Advanced Simple@L5
Параметр BVOP формата : 2
Параметр QPel формата : Нет
Параметр GMC формата : Без точки перехода
Параметр матрицы формата : Default (H.263)
Режим смешивания : Сжатый битовый поток
Идентификатор кодека : XVID
Идентификатор кодека/Подсказка : XviD
Продолжительность : 1 ч. 33 м.
Битрейт : 1652 Кбит/сек
Ширина : 720 пикс.
Высота : 400 пикс.
Соотношение сторон : 16:9
Частота кадров : 24,000 кадр/сек
Частота кадров в оригинале : 23,976 кадр/сек
Цветовое пространство : YUV
Подвыборка цветности : 4:2:0
Битовая глубина : 8 бит
Тип развёртки : Прогрессивная
Метод сжатия : С потерями
Бит/(Пиксели*Кадры) : 0.239
Размер потока : 1,07 Гбайт (78%)
Библиотека кодирования : XviD 63

Аудио
Идентификатор : 1
Формат : AC-3
Формат/Информация : Audio Coding 3
Расширение режима : CM (complete main)
Идентификатор кодека : 2000
Продолжительность : 1 ч. 33 м.
Вид битрейта : Постоянный
Битрейт : 448 Кбит/сек
Каналы : 6 каналов
Расположение каналов : Front: L C R, Side: L R, LFE
Частота : 48,0 КГц
Битовая глубина : 16 бит
Метод сжатия : С потерями
Размер потока : 298 Мбайт (21%)
Выравнивание : Разделение по промежуткам
Продолжительность промежутка : 42 мс. (1,00 видеокадр)
Время предзагрузки промежутка : 500 ms



загрузка...
Правила, инструкции, FAQ!!!
Торрент  Добавлен [24 дек 2012, 09:11] Скачать торрент
Скачать торрент
[ Размер 14.14 КБ / Просмотров 18 ]

Статус
Проверен 
 
Размер  1.37 ГБ
Приватный: Нет (DHT включён)
.torrent скачан  0
Как залить торрент? | Как скачать Torrent? | Как смотреть и слушать онлайн?  


     Отправить личное сообщение
   
Страница 1 из 1
Показать сообщения за:  Поле сортировки  
Начать новую тему Ответить на тему

   Похожие торренты   Автор   Ответы   Просмотры   Последнее сообщение 
В этой теме нет новых непрочитанных сообщений. Скачать торрент 2012 / 2012 (Роланд Эммерих / Roland Emmerich) [2009 г., Боевик, приключения, драма, фантастика, HDRip] Dub

в форуме Фантастика, Фэнтези, Размер: 1.47 ГБ, Здоровье: 100%

Anonymous

0
1|0

155
0

12 фев 2014, 08:16

Anonymous Перейти к последнему сообщению

В этой теме нет новых непрочитанных сообщений. Скачать торрент Проверен Jump! Live in studio 2012 (Sub Rosa Dictum, AVias, 2morrow2late, Straightroads) [2012, Grunge/Alternative/Punk, HDRip]

в форуме Концерты (HD-Video), Размер: 1.68 ГБ, Здоровье: 100%

Anonymous

0
1|0

1
0

23 окт 2016, 13:10

Anonymous Перейти к последнему сообщению

В этой теме нет новых непрочитанных сообщений. Скачать торрент Мистер пип / Mr. Pip (2012) HDRip | L

в форуме Драмы, Мелодрамы, Размер: 1.53 ГБ, Здоровье: 20%

Anonymous

0
1|5

19
1

14 апр 2014, 20:59

Anonymous Перейти к последнему сообщению

В этой теме нет новых непрочитанных сообщений. Скачать торрент Проверен Колобок (2012) HDRip

в форуме Отечественные мультфильмы, Размер: 149.97 МБ, Здоровье: 100%

Anonymous

0
15|2

156
2

07 сен 2014, 13:09

Anonymous Перейти к последнему сообщению

В этой теме нет новых непрочитанных сообщений. Скачать торрент Проверен Триада / Triad / Jat jik (2012) HDRip | L1

в форуме Криминал, Размер: 1.45 ГБ, Здоровье: 100%

Anonymous

0
40|7

170
396

09 ноя 2014, 17:53

Anonymous Перейти к последнему сообщению



Сейчас этот форум просматривают: нет зарегистрированных пользователей и гости: 2


Вы не можете начинать темы
Вы не можете отвечать на сообщения
Вы не можете редактировать свои сообщения
Вы не можете удалять свои сообщения
Вы не можете добавлять вложения

Перейти:  

!ВНИМАНИЕ!
 Ресурс не предоставляет электронные версии произведений, а занимается лишь коллекционированием и каталогизацией ссылок, присылаемых и публикуемых на форуме нашими читателями. Если вы являетесь правообладателем какого-либо представленного материала и не желаете чтобы ссылка на него находилась в нашем каталоге, свяжитесь с нами и мы незамедлительно удалим её. Файлы для обмена на трекере предоставлены пользователями сайта, и администрация не несёт ответственности за их содержание. Просьба не заливать файлы, защищенные авторскими правами, а также файлы нелегального содержания!