На всех торрентах на трекере установлена скидка на скачивание в размере 100 процентов(а).
 Возможность скачивания торрента НЕ зависит от ограничений при низком ратио, низком аплоаде, требуемом ратио или требуемом аплоаде.


Начать новую тему Ответить на тему
Статистика раздачи
Размер: 4.04 ГБ | Добавлен: 26 фев 2014, 15:03 | Скачали: 45
Сидеров: 19  [0 байт/сек]    Личеров: 4  [0 байт/сек]
Пред. тема | След. тема 

Автор
Сообщение

СообщениеДобавлено: 26 фев 2014, 15:03 

Тренировочный день
| Training Day
|



Название: Тренировочный день
Оригинальное название: Training Day
Год выхода: 2001
Жанр: триллер, драма, криминал
Режиссер: Антуан Фукуа

В ролях: Дензел Вашингтон, Этан Хоук, Скотт Гленн, Том Беренджер, Харрис Юлин, Рэймонд Дж. Бэрри, Клифф Кертис, Др. Дре, Снуп Догг, Мейси Грей, Шарлотта Айянна, Ева Мендес, Ник Чинланд, Джейм Гомез, Рэймонд Крус, Ноэль Гульеми, Саманта Бекер, Ричард Броуни, Рональд Эллис, Уильям Инглиш, Киджил Н. Джолли, Фрэн Кренц, Джанин Крикорян, Принсира Ли, Роберт Леон, Сейди Лопез, Кеннет Аллен Мэдден, Сара Даниэль Мэдисон, Крис Паттерсон, Руди Перез, Даррел Селлерс, Бэн Скорстед, Кле Шахид Слоун, Бритт Соренсон, Абель Сото, Уилл Стюарт, Дэнзел Уитакер, Гарлэнд Уитт, Питер Гри

Вкратце:
В Лос-Анджелесе, улицы которого наводнены торговцами наркотиками, те, кто поклялся обществу блюсти закон, нарушают его на каждом шагу. Детектив полиции Алонзо Харрис, ветеран отдела по борьбе с распространителями "дури", пользуется весьма сомнительными, а подчас и противозаконными методами, ради благой цели очищения улиц города от преступников. К Харрису приставляют новичка, которому предстоит 24 часа наблюдать за работой опытного копа с более чем десятилетним стажем и параллельно учиться. Впервые в работе молодой полицейский сталкивается с этическими проблемами, которые ежедневно приходится решать каждому служителю правопорядка: что важнее - неукоснительное следование букве закона или результат, когда "вор должен сидеть в тюрьме"…



Страна: США, Австралия
Студия: NPV Entertainment, Outlaw Productions, Village Roadshow Pictures, Warner Bros. Pictures Co., WV Films II LLC.
Продолжительность: 02:02:04
Перевод: Дублированный, профессиональный (многоголосый закадровый), авторский (одноголосый закадровый)


Кодек: h.264
Качество: BDRip-AVC
Видео: 1670 Кбит/с, 1024x434, 23.976 кадр/с

Звук:
• №1: Русский (AC3, 6 ch, 384 Кбит/с) Дублированный
• №2: Русский (AC3, 6 ch, 384 Кбит/с) Профессиональный многоголосый
• №3: Английский (AC3, 6 ch, 384 Кбит/с)
Отдельно:
• №4: Русский (AC3, 6 ch, 384 Кбит/с) Профессиональный многоголосый [Карусель]
• №5: Русский (AC3, 6 ch, 384 Кбит/с) Авторский одноголосый [Андрей Гаврилов]
• №6: Русский (AC3, 6 ch, 384 Кбит/с) Авторский одноголосый [Сергей Визгунов]
• №7: Русский (AC3, 6 ch, 384 Кбит/с) Авторский одноголосый [Владимир Завгородний]
• №8: Русский (AC3, 6 ch, 384 Кбит/с) Авторский одноголосый [Юрий Живов]

Субтитры: Русские, английские

---------------------------------------------------------------------
x264 [info]: frame I:1757 Avg QP:16.28 size: 63673
x264 [info]: frame P:41112 Avg QP:18.69 size: 16960
x264 [info]: frame B:132701 Avg QP:21.41 size: 5415
---------------------------------------------------------------------

Полное имя : F:Training.Day.2001.x264.BDRip-AVC.0ptimusTraining.Day.2001.x264.BDRip-AVC.0ptimus.mkv
Формат : Matroska
Версия формата : Version 2
Размер файла : 2,41 Гбайт
Продолжительность : 2 ч. 2 м.
Общий поток : 2823 Кбит/сек
Название фильма : Тренировочный день | Training Day [2001]-= BDRip (AVC) by 0ptimus =-
Дата кодирования : UTC 2014-02-25 15:38:59
Программа кодирования : mkvmerge v6.6.0 ('The Edge Of The In Between') built on Dec 1 2013 17:55:00
Библиотека кодирования : libebml v1.3.0 + libmatroska v1.4.1

Видео
Идентификатор : 1
Формат : AVC
Формат/Информация : Advanced Video Codec
Профиль формата : High@L4.1
Параметр CABAC формата : Да
Параметр ReFrames формата : 9 кадров
Идентификатор кодека : V_MPEG4/ISO/AVC
Продолжительность : 2 ч. 2 м.
Битрейт : 1670 Кбит/сек
Ширина : 1024 пикселя
Высота : 434 пикселя
Соотношение сторон : 2,35:1
Режим частоты кадров : Постоянный
Частота кадров : 23,976 кадра/сек
Цветовое пространство : YUV
Субдискретизация насыщенности : 4:2:0
Битовая глубина : 8 бит
Тип развёртки : Прогрессивная
Бит/(Пиксели*Кадры) : 0.157
Размер потока : 1,38 Гбайт (57%)
Заголовок : Rip by 0ptimus
Библиотека кодирования : x264 core 116 r2044 392e762
Настройки программы : cabac=1 / ref=9 / deblock=1:-2:-1 / analyse=0x3:0x113 / me=umh / subme=11 / psy=1 / psy_rd=1.00:0.20 / mixed_ref=1 / me_range=32 / chroma_me=1 / trellis=2 / 8x8dct=1 / cqm=0 / deadzone=21,11 / fast_pskip=0 / chroma_qp_offset=-3 / threads=3 / sliced_threads=0 / nr=0 / decimate=1 / interlaced=0 / bluray_compat=0 / constrained_intra=0 / bframes=6 / b_pyramid=2 / b_adapt=2 / b_bias=0 / direct=3 / weightb=1 / open_gop=0 / weightp=2 / keyint=250 / keyint_min=23 / scenecut=40 / intra_refresh=0 / rc=2pass / mbtree=0 / bitrate=1670 / ratetol=1.0 / qcomp=0.60 / qpmin=0 / qpmax=69 / qpstep=4 / cplxblur=20.0 / qblur=0.5 / ip_ratio=1.40 / pb_ratio=1.30 / aq=1:1.00
Язык : English
Default : Да
Forced : Да

Аудио #1
Идентификатор : 2
Формат : AC-3
Формат/Информация : Audio Coding 3
Расширение режима : CM (complete main)
Параметр Endianness формата : Big
Идентификатор кодека : A_AC3
Продолжительность : 2 ч. 2 м.
Вид битрейта : Постоянный
Битрейт : 384 Кбит/сек
Каналы : 6 каналов
Расположение каналов : Front: L C R, Side: L R, LFE
Частота : 48,0 КГц
Битовая глубина : 16 бит
Метод сжатия : С потерями
Размер потока : 335 Мбайт (14%)
Заголовок : Дублированный AC3 5.1 @ 384 kbps
Язык : Russian
Default : Да
Forced : Да

Аудио #2
Идентификатор : 3
Формат : AC-3
Формат/Информация : Audio Coding 3
Расширение режима : CM (complete main)
Параметр Endianness формата : Big
Идентификатор кодека : A_AC3
Продолжительность : 2 ч. 2 м.
Вид битрейта : Постоянный
Битрейт : 384 Кбит/сек
Каналы : 6 каналов
Расположение каналов : Front: L C R, Side: L R, LFE
Частота : 48,0 КГц
Битовая глубина : 16 бит
Метод сжатия : С потерями
Размер потока : 335 Мбайт (14%)
Заголовок : Многоголосый закадровый AC3 5.1 @ 384 kbps
Язык : Russian
Default : Нет
Forced : Нет

Аудио #3
Идентификатор : 4
Формат : AC-3
Формат/Информация : Audio Coding 3
Расширение режима : CM (complete main)
Параметр Endianness формата : Big
Идентификатор кодека : A_AC3
Продолжительность : 2 ч. 2 м.
Вид битрейта : Постоянный
Битрейт : 384 Кбит/сек
Каналы : 6 каналов
Расположение каналов : Front: L C R, Side: L R, LFE
Частота : 48,0 КГц
Битовая глубина : 16 бит
Метод сжатия : С потерями
Размер потока : 335 Мбайт (14%)
Заголовок : AC3 5.1 @ 384 kbps
Язык : English
Default : Нет
Forced : Нет

Текст #1
Идентификатор : 5
Формат : UTF-8
Идентификатор кодека : S_TEXT/UTF8
Идентификатор кодека/Информация : UTF-8 Plain Text
Язык : Russian
Default : Да
Forced : Нет

Текст #2
Идентификатор : 6
Формат : UTF-8
Идентификатор кодека : S_TEXT/UTF8
Идентификатор кодека/Информация : UTF-8 Plain Text
Язык : English
Default : Нет
Forced : Нет

Меню
00:00:00.000 : en:It's Today
00:03:53.524 : en:Tell Me a Story
00:08:02.356 : en:Leave Family Out
00:12:20.072 : en:Drug Roust
00:15:37.394 : en:Narcotics in His Blood
00:20:35.943 : en:Joking with Roger
00:25:42.290 : en:Alley Incident
00:32:13.931 : en:It Takes a Wolf
00:36:12.670 : en:Collaring Sammy
00:40:41.063 : en:Sandman's Wife
00:45:20.467 : en:Firing Line
00:47:15.207 : en:Wolf or Sheep?
00:49:24.002 : en:Mother and Son
00:55:04.259 : en:Lapd's Finest
00:59:59.762 : en:The Unit Punches In
01:02:56.272 : en:Roger Out of His Misery
01:09:56.859 : en:The Scenario
01:15:08.253 : en:This Is the Game
01:20:29.699 : en:Five-Card Draw
01:24:17.385 : en:The Drop on the Cop
01:29:26.277 : en:Smiley's Cousin
01:33:27.602 : en:"I'm Here for Alonzo"
01:37:21.335 : en:Preserving Life
01:41:25.579 : en:Rooftop Battle
01:45:00.210 : en:What Jake Learned Today
01:48:44.184 : en:"You Can't Kill Me"
01:52:39.961 : en:Going Home
01:55:43.144 : en:End Credits (W.O.L.V.E.S., American Dream, #1)



Релиз от:
загрузка...
Правила, инструкции, FAQ!!!
Торрент  Добавлен [26 фев 2014, 15:03] Скачать торрент
Скачать торрент
[ Размер 21.81 КБ / Просмотров 6 ]

Статус  
 
Размер  4.04 ГБ
Приватный: Нет (DHT включён)
.torrent скачан  45
Как залить торрент? | Как скачать Torrent? | Как смотреть и слушать онлайн?  


     Отправить личное сообщение
   
Страница 1 из 1
Показать сообщения за:  Поле сортировки  
Начать новую тему Ответить на тему

   Похожие торренты   Автор   Ответы   Просмотры   Последнее сообщение 
В этой теме нет новых непрочитанных сообщений. Скачать торрент Проверен [Men's Fitness] Lerwill S. / Лервилл Ш. - Military Fitness. Special Forces Training Plan / Физическая подготовка. Тренировочный план коммандос морской пехоты Великобритании [2014, PDF, ENG]

в форуме Физкультура, фитнес, бодибилдинг, Размер: 22.28 МБ, Здоровье: 0%

Anonymous

0
0|0

1
0

05 окт 2016, 00:15

Anonymous Перейти к последнему сообщению

В этой теме нет новых непрочитанных сообщений. Скачать торрент Проверен Teracom's DVD video training: Core Training, Wireless Training, VoIP Training [2007 г.]

в форуме Компьютерные сети и безопасность, Размер: 10.59 ГБ, Здоровье: 100%

Гость

0
3|1

5
0

17 июл 2016, 18:07

Гость Перейти к последнему сообщению

В этой теме нет новых непрочитанных сообщений. Скачать торрент Проверен [Infinite Skills] Cisco 640-461 (ICOMM) Exam Training Training Video [2015, ENG]

в форуме Компьютерные сети и безопасность, Размер: 961.88 МБ, Здоровье: 100%

Anonymous

0
5|1

7
0

17 июл 2016, 18:27

Anonymous Перейти к последнему сообщению

В этой теме нет новых непрочитанных сообщений. Скачать торрент Проверен [O'Reilly Media / Infinite Skills] CISSP Certification Training: Domain 2 Training Video [2015, ENG]

в форуме Компьютерные сети и безопасность, Размер: 655.43 МБ, Здоровье: 100%

Anonymous

0
7|2

9
1

17 июл 2016, 18:20

Anonymous Перейти к последнему сообщению

В этой теме нет новых непрочитанных сообщений. Скачать торрент Проверен [O'Reilly Media / Infinite Skills] CISSP Certification Training: Domain 3 Training Video [2015, ENG]

в форуме Компьютерные сети и безопасность, Размер: 1.86 ГБ, Здоровье: 100%

Anonymous

0
6|2

10
1

17 июл 2016, 18:20

Anonymous Перейти к последнему сообщению



Сейчас этот форум просматривают: нет зарегистрированных пользователей и гости: 1


Вы не можете начинать темы
Вы не можете отвечать на сообщения
Вы не можете редактировать свои сообщения
Вы не можете удалять свои сообщения
Вы не можете добавлять вложения

Перейти:  

!ВНИМАНИЕ!
 Ресурс не предоставляет электронные версии произведений, а занимается лишь коллекционированием и каталогизацией ссылок, присылаемых и публикуемых на форуме нашими читателями. Если вы являетесь правообладателем какого-либо представленного материала и не желаете чтобы ссылка на него находилась в нашем каталоге, свяжитесь с нами и мы незамедлительно удалим её. Файлы для обмена на трекере предоставлены пользователями сайта, и администрация не несёт ответственности за их содержание. Просьба не заливать файлы, защищенные авторскими правами, а также файлы нелегального содержания!