На всех торрентах на трекере установлена скидка на скачивание в размере 100 процентов(а).
 Возможность скачивания торрента НЕ зависит от ограничений при низком ратио, низком аплоаде, требуемом ратио или требуемом аплоаде.


Начать новую тему Ответить на тему
Статистика раздачи
Размер: 1.46 ГБ | Добавлен: 20 фев 2014, 15:31 | Скачали: 0
Сидеров: 0  [0 байт/сек]    Личеров: 0  [0 байт/сек]
Пред. тема | След. тема 

Автор
Сообщение

СообщениеДобавлено: 20 фев 2014, 15:31 

Ограбление на Бейкер-Стрит / The Bank Job

«The true story of a heist gone wrong... in all the right ways.»
Год выпуска: 2008
Страна: Великобритания, США
Жанр: Триллер, драма, криминал
Продолжительность: 1:51:39
Перевод №1: Профессиональный (полное дублирование)

Перевод №2: Профессиональный (многоголосый закадровый) [С.Р.И.] {отдельно на файлообменнике}
Перевод №3: Авторский (одноголосый закадровый) [А. Гаврилов] {отдельно на файлообменнике}
Субтитры: Нет
Режиссер: Роджер Дональдсон / Roger Donaldson
В ролях: Джейсон Стэйтем, Саффрон Берроуз, Стивен Кэмпбелл Мур, Дэниэл Мейс, Джеймс Фолкнер, Алки Дэвид, Майкл Джибсон, Джорджия Тейлор, Ричард Линтерн, Питер Боулз и др.
Описание: Фильм основан на реальных событиях, происходивших в Великобритании в 1971 году. После 35 лет забвения мы наконец узнаем об одном из самых легендарных ограблений банка в истории Великобритании, когда не было произведено ни одного ареста и не было найдено ни малейшего следа похищенных денег. Налёт на банк на Бейкер Стрит был инициирован высокопоставленными официальными лицами, пытающимися добраться до заветной банковской ячейки, в которой хозяйка одного из известнейших борделей Лондона хранила секретную информацию. Теперь запрет на разглашение информации об этом ограблении снят британским правительством, и перед нами открывается красочная, лихо закрученная история, полная тайн, сюрпризов и неожиданных поворотов…
Бюджет: $40 000 000
Сборы в США: $30 060 660 | Сборы в Мире: + $34 762 136 = $64 822 796 | Сборы в России: $2 857 400
Рейтинг MPAA: R (Лицам до 17 лет обязательно присутствие взрослого!)




Качество видео: BDRip
Исходник: BDRemux 1080p [Open Matte]
Формат видео: AVI
Видео: 688x384 (1.79:1), 24 fps, XviD build 73 ~1417 kbps avg, 0.22 bit/pixel
Аудио#1: 48 kHz, AC3 Dolby Digital, 3/2 (L,C,R,l,r) + LFE ch, ~448.00 kbps avg [Dub]
Аудио#2: 48 kHz, AC3 Dolby Digital, 3/2 (L,C,R,l,r) + LFE ch, ~448.00 kbps avg [MVO] {отдельно на файлообменнике}
Аудио#3: 48 kHz, AC3 Dolby Digital, 3/2 (L,C,R,l,r) + LFE ch, ~448.00 kbps avg [AVO] {отдельно на файлообменнике}
Размер: 1497.62 Mb ( 1 570 365 440 bytes ) ⅓ DVD
MediaInfo
Код:
Код:
General
Complete name                            : C:\Users\Downloads\Encode\Bank.Job\BDMV\STREAM\Ograblenie_na_Baker-Street.2008.[R.G.AllFilms].avi
Format                                   : AVI
Format/Info                              : Audio Video Interleave
File size                                : 1.46 GiB
Duration                                 : 1h 51mn
Overall bit rate                         : 1 875 Kbps
Movie name                               : The Bank Job (2008) - BDRip by Juvelir
Writing application                      : VirtualDubMod 1.5.10.3 | www.virtualdub-fr.org || (build 2550/release)

Video
ID                                       : 0
Format                                   : MPEG-4 Visual
Format profile                           : Advanced Simple@L5
Format settings, BVOP                    : 1
Format settings, QPel                    : No
Format settings, GMC                     : No warppoints
Format settings, Matrix                  : Custom
Codec ID                                 : XVID
Codec ID/Hint                            : XviD
Duration                                 : 1h 51mn
Bit rate                                 : 1 418 Kbps
Width                                    : 688 pixels
Height                                   : 384 pixels
Display aspect ratio                     : 16:9
Frame rate                               : 24.000 fps
Color space                              : YUV
Chroma subsampling                       : 4:2:0
Bit depth                                : 8 bits
Scan type                                : Progressive
Compression mode                         : Lossy
Bits/(Pixel*Frame)                       : 0.224
Stream size                              : 1.11 GiB (76%)
Writing library                          : XviD 73

Audio
ID                                       : 1
Format                                   : AC-3
Format/Info                              : Audio Coding 3
Mode extension                           : CM (complete main)
Format settings, Endianness              : Big
Codec ID                                 : 2000
Duration                                 : 1h 51mn
Bit rate mode                            : Constant
Bit rate                                 : 448 Kbps
Channel(s)                               : 6 channels
Channel positions                        : Front: L C R, Side: L R, LFE
Sampling rate                            : 48.0 KHz
Bit depth                                : 16 bits
Compression mode                         : Lossy
Stream size                              : 358 MiB (24%)
Alignment                                : Split accross interleaves
Interleave, duration                     : 42 ms (1.00 video frame)
Interleave, preload duration             : 500 ms



загрузка...
Правила, инструкции, FAQ!!!
Торрент  Добавлен [20 фев 2014, 15:31] Скачать торрент
Скачать торрент
[ Размер 29.78 КБ / Просмотров 6 ]

Статус  
 
Размер  1.46 ГБ
Приватный: Нет (DHT включён)
.torrent скачан  0
Как залить торрент? | Как скачать Torrent? | Как смотреть и слушать онлайн?  


     Отправить личное сообщение
   
Страница 1 из 1
Показать сообщения за:  Поле сортировки  
Начать новую тему Ответить на тему

   Похожие торренты   Автор   Ответы   Просмотры   Последнее сообщение 
В этой теме нет новых непрочитанных сообщений. Скачать торрент Ограбление по-итальянски / The Italian Job (Ф. Гэри Грей / F. Gary Gray) [2003, США, Франция, Великобритания, боевик, триллер, криминал, BDRip-AVC] Dub + Sub Rus, Eng

в форуме 720p | 1080p, Размер: 744.93 МБ, Здоровье: 0%

Anonymous

0
0|0

33
0

10 фев 2014, 13:06

Anonymous Перейти к последнему сообщению

В этой теме нет новых непрочитанных сообщений. Скачать торрент Бронсон / Bronson (Николас Виндинг Рёфн / Nicolas Winding Refn) [2008, Великобритания, боевик, триллер, драма, криминал, биография, BDRip]

в форуме Боевики, Размер: 830.56 МБ, Здоровье: 100%

Anonymous

0
2|1

32
0

02 апр 2014, 12:07

Anonymous Перейти к последнему сообщению

В этой теме нет новых непрочитанных сообщений. Скачать торрент Грязные прелести / Dirty Pretty Things (Стивен Фрирз / Stephen Frears) [2002, Великобритания, Триллер, драма, криминал, BDRip]

в форуме Триллеры, Размер: 1.46 ГБ, Здоровье: 100%

Anonymous

0
47|16

29
0

29 апр 2014, 13:53

Anonymous Перейти к последнему сообщению

В этой теме нет новых непрочитанных сообщений. Скачать торрент Телохранитель / London Boulevard (Уильям Монахэн / William Monahan) [2010, США, Великобритания, триллер, драма, криминал, BDRip] DUB + Original (Eng) + Subs (rus,eng)

в форуме Триллеры, Размер: 2.17 ГБ, Здоровье: 0%

Anonymous

0
0|0

65
0

13 фев 2014, 06:34

Anonymous Перейти к последнему сообщению

В этой теме нет новых непрочитанных сообщений. Скачать торрент Игры дьявола / Before the Devil Knows You're Dead (Сидни Люмет / Sidney Lumet) [2007, США, Великобритания, Триллер, драма, криминал, BDRip-AVC] Dub + Sub Rus + Original Eng

в форуме 720p | 1080p, Размер: 2.18 ГБ, Здоровье: 100%

Anonymous

0
19|6

25
0

16 фев 2014, 13:07

Anonymous Перейти к последнему сообщению



Сейчас этот форум просматривают: нет зарегистрированных пользователей и гости: 1


Вы не можете начинать темы
Вы не можете отвечать на сообщения
Вы не можете редактировать свои сообщения
Вы не можете удалять свои сообщения
Вы не можете добавлять вложения

Перейти:  

!ВНИМАНИЕ!
 Ресурс не предоставляет электронные версии произведений, а занимается лишь коллекционированием и каталогизацией ссылок, присылаемых и публикуемых на форуме нашими читателями. Если вы являетесь правообладателем какого-либо представленного материала и не желаете чтобы ссылка на него находилась в нашем каталоге, свяжитесь с нами и мы незамедлительно удалим её. Файлы для обмена на трекере предоставлены пользователями сайта, и администрация не несёт ответственности за их содержание. Просьба не заливать файлы, защищенные авторскими правами, а также файлы нелегального содержания!