На всех торрентах на трекере установлена скидка на скачивание в размере 100 процентов(а).
 Возможность скачивания торрента НЕ зависит от ограничений при низком ратио, низком аплоаде, требуемом ратио или требуемом аплоаде.


Начать новую тему Ответить на тему
Статистика раздачи
Размер: 1.46 ГБ | Добавлен: 19 фев 2014, 11:43 | Скачали: 1
Сидеров: 0  [0 байт/сек]    Личеров: 0  [0 байт/сек]
Пред. тема | След. тема 

Автор
Сообщение

СообщениеДобавлено: 19 фев 2014, 11:43 

Жизнь за брата / The Heavy

«Right or wrong, is never black or white»

Год выпуска: 2010
Премьера: 7 ноября 2008
Страна: |
Жанр: триллер
Продолжительность: 01:41:46
Перевод: Профессиональный (многоголосый, закадровый) [лицензия]
Cубтитры: Нет
Режиссёр: Маркус Уоррен / Marcus Warren
В ролях: Гари Стретч, Винни Джонс, Стивен Ри, Шаннин Соссамон, Кристофер Ли, Ли Райан, Эдриан Пол, Жан Марш, Сэди Фрост, Джофф Белл
Описание: Герой фильма — бандит-«шестерка» Бутс, который в уплату долга своему боссу должен убить собственного брата-политика. По ходу реализации плана герой заводит роман с симпатичной студенткой Клэр, чью квартиру он намерен использовать для убийства. Дело осложняется тем, что по следу потенциального киллера идет коррумпированный детектив Данн.


Качество: BDRip (Исходник The.Heavy.2010.BluRay-HDCLUB)
Формат: AVI
Видео кодек: XviD
Аудио кодек: AC3
Видео: 704x384 (1.83:1), 23.976 fps, XviD build 65 ~1655 kbps avg, 0.26 bit/pixel
Аудио - : 48 kHz, AC3 Dolby Digital, 3/2 (L,C,R,l,r) LFE ch, ~384 kbps




phpBB [media]





MediaInfo
Код:
Код:
General
Complete name                    : D:\Downloads\The.Heavy.2010.BDRip.XviD-denashekkk.avi
Format                           : AVI
Format/Info                      : Audio Video Interleave
File size                        : 1.46 GiB
Duration                         : 1h 41mn
Overall bit rate                 : 2 049 Kbps
Writing application              : VirtualDubMod 1.5.10.2 (build 2540/release)
Writing library                  : VirtualDubMod build 2540/release

Video
ID                               : 0
Format                           : MPEG-4 Visual
Format profile                   : Advanced Simple@L5
Format settings, BVOP            : 2
Format settings, QPel            : No
Format settings, GMC             : No warppoints
Format settings, Matrix          : Custom
Codec ID                         : XVID
Codec ID/Hint                    : XviD
Duration                         : 1h 41mn
Bit rate                         : 1 656 Kbps
Width                            : 704 pixels
Height                           : 384 pixels
Display aspect ratio             : 16:9
Frame rate                       : 23.976 fps
Color space                      : YUV
Chroma subsampling               : 4:2:0
Bit depth                        : 8 bits
Scan type                        : Progressive
Compression mode                 : Lossy
Bits/(Pixel*Frame)               : 0.256
Stream size                      : 1.18 GiB (81%)
Writing library                  : XviD 65

Audio
ID                               : 1
Format                           : AC-3
Format/Info                      : Audio Coding 3
Mode extension                   : CM (complete main)
Codec ID                         : 2000
Duration                         : 1h 41mn
Bit rate mode                    : Constant
Bit rate                         : 384 Kbps
Channel(s)                       : 6 channels
Channel positions                : Front: L C R, Side: L R, LFE
Sampling rate                    : 48.0 KHz
Bit depth                        : 16 bits
Compression mode                 : Lossy
Stream size                      : 280 MiB (19%)
Alignment                        : Split accross interleaves
Interleave, duration             : 42 ms (1.00 video frame)
Interleave, preload duration     : 500 ms


загрузка...
Правила, инструкции, FAQ!!!
Торрент  Добавлен [19 фев 2014, 11:43] Скачать торрент
Скачать торрент
[ Размер 15.06 КБ / Просмотров 8 ]

Статус  
 
Размер  1.46 ГБ
Приватный: Нет (DHT включён)
.torrent скачан  1
Как залить торрент? | Как скачать Torrent? | Как смотреть и слушать онлайн?  


     Отправить личное сообщение
   
Страница 1 из 1
Показать сообщения за:  Поле сортировки  
Начать новую тему Ответить на тему

   Похожие торренты   Автор   Ответы   Просмотры   Последнее сообщение 
В этой теме нет новых непрочитанных сообщений. Скачать торрент Тяжелый / The Heavy (Маркус Уоррен / Marcus Warren) [2010 г., Триллер, НDRip]

в форуме Триллеры, Размер: 1.46 ГБ, Здоровье: 100%

Anonymous

0
1|0

55
1

12 фев 2014, 08:15

Anonymous Перейти к последнему сообщению

В этой теме нет новых непрочитанных сообщений. Скачать торрент Следопыт / Pathfinder (Маркус Ниспел / Marcus Nispel) [2007 г., Боевик, приключения, драма, триллер, BDRip] [UNRATED] Dub

в форуме Боевики, Размер: 2.18 ГБ, Здоровье: 100%

Anonymous

0
5|2

44
0

19 апр 2014, 18:49

Anonymous Перейти к последнему сообщению

В этой теме нет новых непрочитанных сообщений. Скачать торрент Проверен Пятница 13-е (Расширенная версия) / Friday the 13th (Extended Cut) (Маркус Ниспел / Marcus Nispel) [2009, США, ужасы BDRip, 480p] Dub + DVO + Original + sub (rus, eng)

в форуме Фильмы для iPod, iPhone, iPad, Размер: 1.52 ГБ, Здоровье: 100%

Anonymous

0
34|4

91
1

11 май 2015, 01:32

Anonymous Перейти к последнему сообщению

В этой теме нет новых непрочитанных сообщений. Скачать торрент Проверен [iPad] Конан-варвар / Conan the Barbarian (Маркус Ниспел/ Marcus Nispel) [2011, США, Фэнтези, боевик, приключения, BDRip, 576p] Dub + Original + sub (rus, eng)

в форуме Фильмы для iPod, iPhone, iPad, Размер: 1.94 ГБ, Здоровье: 100%

Anonymous

0
7|2

42
0

13 май 2015, 23:57

Anonymous Перейти к последнему сообщению

В этой теме нет новых непрочитанных сообщений. Скачать торрент Проверен Marcus Zusak / Маркус Зузак - The Book Thief / Книжный вор [2009, FB2/RTF/PDF, RUS]

в форуме Зарубежная литература (XX и XXI век), Размер: 12.1 МБ, Здоровье: 100%

Anonymous

0
35|11

45
1

08 сен 2016, 20:21

Anonymous Перейти к последнему сообщению



Сейчас этот форум просматривают: нет зарегистрированных пользователей и гости: 1


Вы не можете начинать темы
Вы не можете отвечать на сообщения
Вы не можете редактировать свои сообщения
Вы не можете удалять свои сообщения
Вы не можете добавлять вложения

Перейти:  

!ВНИМАНИЕ!
 Ресурс не предоставляет электронные версии произведений, а занимается лишь коллекционированием и каталогизацией ссылок, присылаемых и публикуемых на форуме нашими читателями. Если вы являетесь правообладателем какого-либо представленного материала и не желаете чтобы ссылка на него находилась в нашем каталоге, свяжитесь с нами и мы незамедлительно удалим её. Файлы для обмена на трекере предоставлены пользователями сайта, и администрация не несёт ответственности за их содержание. Просьба не заливать файлы, защищенные авторскими правами, а также файлы нелегального содержания!
cron