На всех торрентах на трекере установлена скидка на скачивание в размере 100 процентов(а).
 Возможность скачивания торрента НЕ зависит от ограничений при низком ратио, низком аплоаде, требуемом ратио или требуемом аплоаде.


Начать новую тему Ответить на тему
Статистика раздачи
Размер: 1.46 ГБ | Добавлен: 19 фев 2014, 09:55 | Скачали: 0
Сидеров: 10  [0 байт/сек]    Личеров: 3  [0 байт/сек]
Пред. тема | След. тема 

Автор
Сообщение

СообщениеДобавлено: 19 фев 2014, 09:55 

Страна: США, Великобритания
Жанр: триллер, драма, криминал
Год выпуска: 2006
Продолжительность: 01:52:02

Озвучивание: Профессиональный, многоголосый [лицензия]
Cубтитры: нет

Режиссер: Грегори Нава / Gregory Nava

В ролях: Дженнифер Лопез, Антонио Бандерас, Кейт Дел Кастилло, Джон Норман, Иринео Альварез, Ричард Барела, Рэндолл Батинкофф, Хуан Диего Ботто, Соня Брэга, Хулио Седилльо



Описание: История репортерши американской газеты Чикаго Сентинел по имени Лорен, чьим очередным редакционным заданием становится коммандировка в мексиканский приграничный городок Хуарез, где она должна будет провести собственное расследование серии нераскрытых убийств женщин — работниц фабрик, произошедших по всей стране. В ходе расследования Лорен узнает, что счет жертв идет уже на сотни. Чтобы узнать об этой ситуации побольше, она решает войти в доверие в работницам местной фабрики, что в последствии подвергает ее собственную жизнь опасности.



Семпл



Качество видео: HDRip [Bordertown.2006.BluRay.1080p.DTS.x264-CHD]
Формат видео: AVI
Видео: 720x400 (1.80:1), 23.976 fps, XviD build 50 ~1470 kbps avg, 0.21 bit/pixel
Аудио: 48 kHz, AC3 Dolby Digital, 3/2 (L,C,R,l,r) + LFE ch, ~384.00 kbps avg
MediaInfo
General
Complete name : Bordertown.2006.P.HDRip.avi
Format : AVI
Format/Info : Audio Video Interleave
File size : 1.46 GiB
Duration : 1h 52mn
Overall bit rate : 1 864 Kbps
Writing application : VirtualDubModRus 1.5.10.2 (build 2542/release)
Writing library : VirtualDubMod build 2542/release

Video
ID : 0
Format : MPEG-4 Visual
Format profile : Advanced Simple@L5
Format settings, BVOP : 2
Format settings, QPel : No
Format settings, GMC : No warppoints
Format settings, Matrix : Custom
Codec ID : XVID
Codec ID/Hint : XviD
Duration : 1h 52mn
Bit rate : 1 470 Kbps
Width : 720 pixels
Height : 400 pixels
Display aspect ratio : 16:9
Frame rate : 23.976 fps
Color space : YUV
Chroma subsampling : 4:2:0
Bit depth : 8 bits
Scan type : Progressive
Compression mode : Lossy
Bits/(Pixel*Frame) : 0.213
Stream size : 1.15 GiB (79%)
Writing library : XviD 1.2.1 (UTC 2008-12-04)

Audio
ID : 1
Format : AC-3
Format/Info : Audio Coding 3
Mode extension : CM (complete main)
Codec ID : 2000
Duration : 1h 52mn
Bit rate mode : Constant
Bit rate : 384 Kbps
Channel(s) : 6 channels
Channel positions : Front: L C R, Side: L R, LFE
Sampling rate : 48.0 KHz
Bit depth : 16 bits
Compression mode : Lossy
Delay relative to video : 10ms
Stream size : 308 MiB (21%)
Alignment : Split accross interleaves
Interleave, duration : 42 ms (1.00 video frame)
Interleave, preload duration : 500 ms




загрузка...
Правила, инструкции, FAQ!!!
Торрент  Добавлен [19 фев 2014, 09:55] Скачать торрент
Скачать торрент
[ Размер 15.07 КБ / Просмотров 13 ]

Статус  
 
Размер  1.46 ГБ
Приватный: Нет (DHT включён)
.torrent скачан  0
Как залить торрент? | Как скачать Torrent? | Как смотреть и слушать онлайн?  


     Отправить личное сообщение
   
Страница 1 из 1
Показать сообщения за:  Поле сортировки  
Начать новую тему Ответить на тему

   Похожие торренты   Автор   Ответы   Просмотры   Последнее сообщение 
В этой теме нет новых непрочитанных сообщений. Скачать торрент Пограничный городок / Город на границе / Bordertown (Грегори Нава / Gregory Nava) [2006, США, Великобритания, триллер, драма, криминал, HDRip] MVO + Sub rus, eng + original eng

в форуме Триллеры, Размер: 2.18 ГБ, Здоровье: ???%

Anonymous

0
0|1

80
0

06 фев 2014, 11:42

Anonymous Перейти к последнему сообщению

В этой теме нет новых непрочитанных сообщений. Скачать торрент Проверен Город на границе / Bordertown (2006) BDRip 720p

в форуме 720p | 1080p, Размер: 3.36 ГБ, Здоровье: 100%

Anonymous

0
19|16

72
95

18 сен 2014, 14:02

Anonymous Перейти к последнему сообщению

В этой теме нет новых непрочитанных сообщений. Скачать торрент Не оставляющий следа / Untraceable (Грегори Хоблит / Gregory Hoblit) [2008 г., триллер, драма, криминал, HDRip] Dub

в форуме Триллеры, Размер: 747.03 МБ, Здоровье: 0%

Anonymous

0
0|0

34
0

07 фев 2014, 11:39

Anonymous Перейти к последнему сообщению

В этой теме нет новых непрочитанных сообщений. Скачать торрент Читая мысли / Like minds (Грегори Дж. Рид / Gregory Rid) [2006, Великобритания, Австралия, ужасы, триллер, криминал, детектив, DVDRip] MVO

в форуме Ужасы, Размер: 1.45 ГБ, Здоровье: 100%

Anonymous

0
34|11

76
0

04 фев 2014, 21:26

Anonymous Перейти к последнему сообщению

В этой теме нет новых непрочитанных сообщений. Скачать торрент Проверен Падший / Fallen (Грегори Хоблит / Gregory Hoblit) [1998, триллер, драма, криминал, BDRip, SD (480p)] DUB, DVO, 3xVO, Original + sub(rus, eng)

в форуме Фильмы для iPod, iPhone, iPad, Размер: 2.4 ГБ, Здоровье: 100%

Anonymous

0
3|1

39
0

18 май 2015, 10:37

Anonymous Перейти к последнему сообщению



Сейчас этот форум просматривают: нет зарегистрированных пользователей и гости: 1


Вы не можете начинать темы
Вы не можете отвечать на сообщения
Вы не можете редактировать свои сообщения
Вы не можете удалять свои сообщения
Вы не можете добавлять вложения

Перейти:  

!ВНИМАНИЕ!
 Ресурс не предоставляет электронные версии произведений, а занимается лишь коллекционированием и каталогизацией ссылок, присылаемых и публикуемых на форуме нашими читателями. Если вы являетесь правообладателем какого-либо представленного материала и не желаете чтобы ссылка на него находилась в нашем каталоге, свяжитесь с нами и мы незамедлительно удалим её. Файлы для обмена на трекере предоставлены пользователями сайта, и администрация не несёт ответственности за их содержание. Просьба не заливать файлы, защищенные авторскими правами, а также файлы нелегального содержания!