На всех торрентах на трекере установлена скидка на скачивание в размере 100 процентов(а).
 Возможность скачивания торрента НЕ зависит от ограничений при низком ратио, низком аплоаде, требуемом ратио или требуемом аплоаде.


Начать новую тему Ответить на тему
Статистика раздачи
Размер: 1.37 ГБ | Добавлен: 17 фев 2014, 08:02 | Скачали: 0
Сидеров: 0  [0 байт/сек]    Личеров: 1  [0 байт/сек]
Пред. тема | След. тема 

Автор
Сообщение

СообщениеДобавлено: 17 фев 2014, 08:02 

Дело Хессена / The Hessen Affair


Страна: Канада, Бельгия
Жанр: триллер, драма, криминал, история
Год выпуска: 2009
Продолжительность: 01:51:03
Перевод: Любительский (двухголосый закадровый)
Cубтитры: нет
Режиссер: Пол Брюлс / Paul Breuls
В ролях: Майкл Боуэн, Норман Боуман, Гуидо Де Краене, Джон Б. Лоу, Майк О’Брайэн, Лайн Рени, Ной Сеган, Рудолф Сегерс, Уилл Войтович, Билли Зейн
Описание: В основу фильма положены реальные события, происшедшие в 1945 году. Главные герои картины — два американских офицера, которые находят спрятанные нацистами драгоценности и пытаются провезти их контрабандным путем в Нью-Йорк.
Релиз от


Качество видео: HDRip [Источник рипа не известен]
Формат видео: AVI

Видео: 720x384, 23.976 fps, Xvid ~1565 Kbps avg, 0.236 bit/pixel
Аудио: 48 kHz, AC3 Dolby Digital, 2 ch, ~192.00 kbps avg


MediaInfo
General
Complete name : E:\Кино для киноманов\Мои раздачи\Дело Хессена - The Hessen Affair (2009)\Delo.Hessena.2009.L2.HDRip.avi
Format : AVI
Format/Info : Audio Video Interleave
File size : 1.37 GiB
Duration : 1h 51mn
Overall bit rate : 1 766 Kbps
Writing application : VirtualDubMod 1.5.10.3 | http://www.virtualdub-fr.org || (build 2550/release)
Writing library : VirtualDubMod build 2550/release

Video
ID : 0
Format : MPEG-4 Visual
Format profile : Advanced Simple@L5
Format settings, BVOP : Yes
Format settings, QPel : No
Format settings, GMC : No warppoints
Format settings, Matrix : Default (MPEG)
Codec ID : XVID
Codec ID/Hint : XviD
Duration : 1h 51mn
Bit rate : 1 565 Kbps
Width : 720 pixels
Height : 384 pixels
Display aspect ratio : 1.875
Frame rate : 23.976 fps
Color space : YUV
Chroma subsampling : 4:2:0
Bit depth : 8 bits
Scan type : Progressive
Compression mode : Lossy
Bits/(Pixel*Frame) : 0.236
Stream size : 1.21 GiB (89%)
Writing library : XviD 58

Audio
ID : 1
Format : AC-3
Format/Info : Audio Coding 3
Mode extension : CM (complete main)
Codec ID : 2000
Duration : 1h 51mn
Bit rate mode : Constant
Bit rate : 192 Kbps
Channel(s) : 2 channels
Channel positions : Front: L R
Sampling rate : 48.0 KHz
Bit depth : 16 bits
Compression mode : Lossy
Stream size : 152 MiB (11%)
Alignment : Split accross interleaves
Interleave, duration : 42 ms (1.00 video frame)
Interleave, preload duration : 500 ms
Скриншот c названием фильма
Скриншоты
загрузка...
Правила, инструкции, FAQ!!!
Торрент  Добавлен [17 фев 2014, 08:02] Скачать торрент
Скачать торрент
[ Размер 14.19 КБ / Просмотров 7 ]

Статус  
 
Размер  1.37 ГБ
Приватный: Нет (DHT включён)
.torrent скачан  0
Как залить торрент? | Как скачать Torrent? | Как смотреть и слушать онлайн?  


     Отправить личное сообщение
   
Страница 1 из 1
Показать сообщения за:  Поле сортировки  
Начать новую тему Ответить на тему

   Похожие торренты   Автор   Ответы   Просмотры   Последнее сообщение 
В этой теме нет новых непрочитанных сообщений. Скачать торрент Охотники за сокровищами / The Hessen Affair (2009) HDRip | Лицензия

в форуме Триллеры, Размер: 2.18 ГБ, Здоровье: ???%

Anonymous

0
0|1

48
0

27 янв 2014, 10:17

Anonymous Перейти к последнему сообщению

В этой теме нет новых непрочитанных сообщений. Скачать торрент Досье "К" / Dossier K (Ян Верхейен / Jan Verheyen) [2009, Бельгия, боевик, триллер, драма, криминал, HDRip]

в форуме Боевики, Размер: 1.46 ГБ, Здоровье: 100%

Anonymous

0
1|0

36
0

02 апр 2014, 12:08

Anonymous Перейти к последнему сообщению

В этой теме нет новых непрочитанных сообщений. Скачать торрент Проверен [iPad] Невидимый / The Invisible (Дэвид С. Гойер / David S. Goyer ) [2007, США, Канада, фэнтези, триллер, драма, криминал, детектив, HDRip, SD (576p)] DUB + Original + sub (rus, eng)

в форуме Фильмы для iPod, iPhone, iPad, Размер: 1.78 ГБ, Здоровье: 100%

Гость

0
8|2

54
0

12 май 2015, 00:06

Гость Перейти к последнему сообщению

В этой теме нет новых непрочитанных сообщений. Охотники за сокровищами / The Monuments Men (Джордж Клуни / George Clooney) [2014, США, Германия, военный, драма, комедия, HDRip] Dub (Line)

в форуме Новинки кино, Размер: 1.46 ГБ, Здоровье: 100%

Anonymous

0
12|0

141
2

18 май 2014, 09:30

Anonymous Перейти к последнему сообщению

В этой теме нет новых непрочитанных сообщений. Скачать торрент ЗащитнеГ / Defendor (Питер Стеббингс / Peter Stebbings) [2009, США, Канада, Великобритания, комедия, драма, криминал, HDRip] AVO (Чадов М.)

в форуме Комедии, Размер: 752.03 МБ, Здоровье: 100%

Anonymous

0
1|0

37
0

12 фев 2014, 08:19

Anonymous Перейти к последнему сообщению



Сейчас этот форум просматривают: нет зарегистрированных пользователей и гости: 3


Вы не можете начинать темы
Вы не можете отвечать на сообщения
Вы не можете редактировать свои сообщения
Вы не можете удалять свои сообщения
Вы не можете добавлять вложения

Перейти:  

!ВНИМАНИЕ!
 Ресурс не предоставляет электронные версии произведений, а занимается лишь коллекционированием и каталогизацией ссылок, присылаемых и публикуемых на форуме нашими читателями. Если вы являетесь правообладателем какого-либо представленного материала и не желаете чтобы ссылка на него находилась в нашем каталоге, свяжитесь с нами и мы незамедлительно удалим её. Файлы для обмена на трекере предоставлены пользователями сайта, и администрация не несёт ответственности за их содержание. Просьба не заливать файлы, защищенные авторскими правами, а также файлы нелегального содержания!