На всех торрентах на трекере установлена скидка на скачивание в размере 100 процентов(а).
 Возможность скачивания торрента НЕ зависит от ограничений при низком ратио, низком аплоаде, требуемом ратио или требуемом аплоаде.


Начать новую тему Ответить на тему
Статистика раздачи
Размер: 2.17 ГБ | Добавлен: 13 фев 2014, 06:34 | Скачали: 0
Сидеров: 0  [0 байт/сек]    Личеров: 0  [0 байт/сек]
Пред. тема | След. тема 

Автор
Сообщение

СообщениеДобавлено: 13 фев 2014, 06:34 

ТЕЛОХРАНИТЕЛЬ / London Boulevard

«You don't want Mitch to be a gangster.»
Страна: США, Великобритания
Студии: GK Films, Henceforth
Жанр: триллер, драма, криминал
Год выпуска: 2010
Продолжительность: 01:43:02
Перевод: профессиональный (дублированный) лицензия R5
Субтитры: русские (Full) + английские (Full) отдельно
Оригинальная аудиодорожка: английский
Режиссёр: Уильям Монахэн / William Monahan
В ролях: Колин Фаррелл (Mitchel), Кира Найтли (Charlotte), Рэй Уинстон (Gant), Дэвид Тьюлис (Jordan), Анна Фрил (Briony), Бен Чаплин (Billy Norton), Эдди Марсан (DI Bailey), Санджив Бхаскар (Dr. Raju), Стивен Грэм (Danny), Офелия Ловибонд (Penny), Джейми Кэмпбелл Бауэр (Whiteboy), Велибор Топик (Storbor).
Описание:

Пытаясь покончить с криминальным прошлым, Митч знакомится с кинозвездой Шарлоттой, которая прячется в своем доме от толпы репортеров и фотографов. Красота и ранимость актрисы покоряют Митча и он становится ее телохранителем, защищая Шарлотту от агрессивных папарацци, преследователей и прочих негодяев. Но преступный мир так легко его не отпустит...






Качество видео: BDRip (Исходник BDRemux 1080p)
Формат файла: AVI
Видео: XviD, 704x384 (16:9), 23.976 fps, 2225 kbps avg, 0.343 bit/pixel
Аудио 1: 48 kHz, AC3 Dolby Digital, 3/2 (L,C,R,l,r) + LFE ch, 384 kbps avg (Rus DUB)
Аудио 2: 48 kHz, AC3 Dolby Digital, 3/2 (L,C,R,l,r) + LFE ch, 384 kbps avg (Original Eng)
Формат субтитров: softsub (SRT)
MediaInfo
Общее
Полное имя : D:\Torrent Rutracker\Telohranitel.2010.DUAL.XviD.AC3.BDRip._by.ZNG505\Telohranitel.2010.DUAL.XviD.AC3.BDRip.avi
Формат : AVI
Формат/Информация : Audio Video Interleave
Профиль формата : OpenDML
Размер файла : 2,17 Гбайт
Продолжительность : 1 ч. 43 м.
Общий поток : 3011 Кбит/сек
Программа кодирования : VirtualDubModRus 1.5.10.2 (build 2542/release)
Библиотека кодирования : VirtualDubMod build 2542/release

Видео
Идентификатор : 0
Формат : MPEG-4 Visual
Профиль формата : Advanced Simple@L5
Параметр BVOP формата : 1
Параметр QPel формата : Нет
Параметр GMC формата : Без точки перехода
Параметр матрицы формата : Выборочная
Идентификатор кодека : XVID
Идентификатор кодека/Подсказка : XviD
Продолжительность : 1 ч. 43 м.
Битрейт : 2225 Кбит/сек
Ширина : 704 пикселя
Высота : 384 пикселя
Соотношение сторон : 16:9
Частота кадров : 23,976 кадра/сек
Цветовое пространство : YUV
Субдискретизация насыщенности : 4:2:0
Битовая глубина : 8 бит
Тип развёртки : Прогрессивная
Метод сжатия : С потерями
Бит/(Пиксели*Кадры) : 0.343
Размер потока : 1,60 Гбайт (74%)
Библиотека кодирования : XviD 1.2.1 (UTC 2008-12-04)

Аудио #1
Идентификатор : 1
Формат : AC-3
Формат/Информация : Audio Coding 3
Расширение режима : CM (complete main)
Идентификатор кодека : 2000
Продолжительность : 1 ч. 43 м.
Вид битрейта : Постоянный
Битрейт : 384 Кбит/сек
Каналы : 6 каналов
Расположение каналов : Front: L C R, Side: L R, LFE
Частота : 48,0 КГц
Битовая глубина : 16 бит
Метод сжатия : С потерями
Размер потока : 283 Мбайт (13%)
Выравнивание : Разделение по промежуткам
Продолжительность промежутка : 42 мс. (1,00 видеокадр)
Время предзагрузки промежутка : 500 мс.

Аудио #2
Идентификатор : 2
Формат : AC-3
Формат/Информация : Audio Coding 3
Расширение режима : CM (complete main)
Идентификатор кодека : 2000
Продолжительность : 1 ч. 43 м.
Вид битрейта : Постоянный
Битрейт : 384 Кбит/сек
Каналы : 6 каналов
Расположение каналов : Front: L C R, Side: L R, LFE
Частота : 48,0 КГц
Битовая глубина : 16 бит
Метод сжатия : С потерями
Размер потока : 283 Мбайт (13%)
Выравнивание : Разделение по промежуткам
Продолжительность промежутка : 42 мс. (1,00 видеокадр)
Время предзагрузки промежутка : 500 мс.

загрузка...
Правила, инструкции, FAQ!!!
Торрент  Добавлен [13 фев 2014, 06:34] Скачать торрент
Скачать торрент
[ Размер 11.55 КБ / Просмотров 9 ]

Статус  
 
Размер  2.17 ГБ
Приватный: Нет (DHT включён)
.torrent скачан  0
Как залить торрент? | Как скачать Torrent? | Как смотреть и слушать онлайн?  


     Отправить личное сообщение
   
Страница 1 из 1
Показать сообщения за:  Поле сортировки  
Начать новую тему Ответить на тему

   Похожие торренты   Автор   Ответы   Просмотры   Последнее сообщение 
В этой теме нет новых непрочитанных сообщений. Скачать торрент Бульвары Лондона / Телохранитель / London Boulevard (Уильям Монахэн / William Monahan) [2010, США, Великобритания, Криминал, Триллер, BDRip] VO (Завгородний)

в форуме Криминал, Размер: 1.81 ГБ, Здоровье: 100%

Anonymous

0
10|3

100
0

02 апр 2014, 12:04

Anonymous Перейти к последнему сообщению

В этой теме нет новых непрочитанных сообщений. Скачать торрент Телохранитель / London Boulevard ( Уильям Монахэн / William Monahan) [2010, США, Великобритания, Триллер, мелодрама, криминал, DVDRip-AVC] Dub

в форуме Триллеры, Размер: 1.45 ГБ, Здоровье: 0%

Anonymous

0
0|0

51
0

02 апр 2014, 12:04

Anonymous Перейти к последнему сообщению

В этой теме нет новых непрочитанных сообщений. Скачать торрент Призрак / The Ghost Writer (Роман Полански / Roman Polanski) [2010, Германия, Франция, Великобритания, триллер, детектив, драма, BDRip-AVC] Dub + Original (eng) + Subs (rus, eng)

в форуме 720p | 1080p, Размер: 2.18 ГБ, Здоровье: 100%

Anonymous

0
12|4

99
0

06 фев 2014, 11:44

Anonymous Перейти к последнему сообщению

В этой теме нет новых непрочитанных сообщений. Скачать торрент Пипец / Kick-Ass (Мэттью Вон / Matthew Vaughn) [2010, США, Великобритания, боевик, триллер, криминал, комедия, HDRip-AVC] DUB + Original (Eng) + Subs (6xRus,2xEng)

в форуме 720p | 1080p, Размер: 808.32 МБ, Здоровье: 100%

Anonymous

0
16|5

34
0

13 фев 2014, 06:33

Anonymous Перейти к последнему сообщению

В этой теме нет новых непрочитанных сообщений. Скачать торрент Дориан Грей / Dorian Gray (Оливер Паркер / Oliver Parker) [2009 г., Великобритания, триллер, драма, мистика, BDRip-AVC] Dub + Original (Eng) + Subs (rus, eng)

в форуме 720p | 1080p, Размер: 2.18 ГБ, Здоровье: 0%

Anonymous

0
0|0

42
0

16 фев 2014, 13:07

Anonymous Перейти к последнему сообщению



Сейчас этот форум просматривают: нет зарегистрированных пользователей и гости: 2


Вы не можете начинать темы
Вы не можете отвечать на сообщения
Вы не можете редактировать свои сообщения
Вы не можете удалять свои сообщения
Вы не можете добавлять вложения

Перейти:  

!ВНИМАНИЕ!
 Ресурс не предоставляет электронные версии произведений, а занимается лишь коллекционированием и каталогизацией ссылок, присылаемых и публикуемых на форуме нашими читателями. Если вы являетесь правообладателем какого-либо представленного материала и не желаете чтобы ссылка на него находилась в нашем каталоге, свяжитесь с нами и мы незамедлительно удалим её. Файлы для обмена на трекере предоставлены пользователями сайта, и администрация не несёт ответственности за их содержание. Просьба не заливать файлы, защищенные авторскими правами, а также файлы нелегального содержания!