На всех торрентах на трекере установлена скидка на скачивание в размере 100 процентов(а).
 Возможность скачивания торрента НЕ зависит от ограничений при низком ратио, низком аплоаде, требуемом ратио или требуемом аплоаде.


Начать новую тему Ответить на тему
Статистика раздачи
Размер: 1.46 ГБ | Добавлен: 01 фев 2014, 19:07 | Скачали: 1
Сидеров: 0  [0 байт/сек]    Личеров: 2  [0 байт/сек]
Пред. тема | След. тема 

Автор
Сообщение

СообщениеДобавлено: 01 фев 2014, 19:07 

Страна: Франция
Жанр: Триллер, драма
Год выпуска: 1994
Продолжительность: 02:12:50

Перевод: Профессиональный (многоголосый закадровый) ОРТ
Cубтитры: нет
Режиссер: Люк Бессон / Luc Besson

В ролях: Жан Рено, Гари Олдман, Натали Портман, Дэнни Айелло, Питер Эппел, Майкл Бадалуччо, Эллен Грин, Фрэнк Сенгер и др.

Описание: Профессиональный убийца Леон, не знающий пощады и жалости, знакомится со своей очаровательной соседкой Матильдой, семью которой расстреливают полицейские, замешанные в торговле наркотиками. Благодаря этому знакомству он впервые испытывает чувство любви, но… как коротка жизнь профессионального убийцы.



Качество видео: BDRip
Формат видео: AVI

Видео: 720x304 (2.37:1), 23.976 fps, XviD build 72 ~1368 kbps avg, 0.26 bit/pixel
Аудио: 48 kHz, AC3 Dolby Digital, 2/0 (L,R) ch, ~192 kbps
Благодарности
За видео спасибо Юрист, за дорожку ОРТ Fikaloid, за синхронизацию formally
MediaInfo
General
Complete name : C:\Documents and Settings\Admin\Рабочий стол\Леон.avi
Format : AVI
Format/Info : Audio Video Interleave
File size : 1.46 GiB
Duration : 2h 12mn
Overall bit rate : 1 570 Kbps
Movie name : Леон: Профессионал / Leon: The Professional
Director : Юpист
Writing application : VirtualDubMod 1.5.10.2 (build 2540/release)
Writing library : VirtualDubMod build 2540/release
Copyright : RG "All films" [rutracker.org]

Video
ID : 0
Format : MPEG-4 Visual
Format profile : Advanced Simple@L5
Format settings, BVOP : 1
Format settings, QPel : No
Format settings, GMC : No warppoints
Format settings, Matrix : Custom
Codec ID : XVID
Codec ID/Hint : XviD
Duration : 2h 12mn
Bit rate : 1 368 Kbps
Width : 720 pixels
Height : 304 pixels
Display aspect ratio : 2.35:1
Frame rate : 23.976 fps
Color space : YUV
Chroma subsampling : 4:2:0
Bit depth : 8 bits
Scan type : Progressive
Compression mode : Lossy
Bits/(Pixel*Frame) : 0.261
Stream size : 1.27 GiB (87%)
Writing library : XviD 72

Audio
ID : 1
Format : AC-3
Format/Info : Audio Coding 3
Mode extension : CM (complete main)
Format settings, Endianness : Big
Codec ID : 2000
Duration : 2h 12mn
Bit rate mode : Constant
Bit rate : 192 Kbps
Channel(s) : 2 channels
Channel positions : Front: L R
Sampling rate : 48.0 KHz
Bit depth : 16 bits
Compression mode : Lossy
Stream size : 182 MiB (12%)
Alignment : Split accross interleaves
Interleave, duration : 42 ms (1.00 video frame)
Interleave, preload duration : 500 ms
Скриншот c названием фильма
Скриншоты
загрузка...
Правила, инструкции, FAQ!!!
Торрент  Добавлен [01 фев 2014, 19:07] Скачать торрент
Скачать торрент
[ Размер 15.14 КБ / Просмотров 8 ]

Статус  
 
Размер  1.46 ГБ
Приватный: Нет (DHT включён)
.torrent скачан  1
Как залить торрент? | Как скачать Torrent? | Как смотреть и слушать онлайн?  


     Отправить личное сообщение
   
Страница 1 из 1
Показать сообщения за:  Поле сортировки  
Начать новую тему Ответить на тему

   Похожие торренты   Автор   Ответы   Просмотры   Последнее сообщение 
В этой теме нет новых непрочитанных сообщений. Скачать торрент Леон / Леон: Профессионал / Léon / Leon / Leon: The Professional (Люк Бессон / Luc Besson) [1994 г., Криминальная драма, триллер, BDRip] [Режиссерская версия / Director's cut] MVO (R5, Амальгама)

в форуме Триллеры, Размер: 1.46 ГБ, Здоровье: 100%

Anonymous

0
56|19

42
2

01 фев 2014, 19:08

Anonymous Перейти к последнему сообщению

В этой теме нет новых непрочитанных сообщений. Скачать торрент Проверен [iPad] Леон: Профессионал / Leon, The Professional (Люк Бессон / Luc Besson) [1994, триллер, драма, криминал, BDRip, 1024x]

в форуме Фильмы для iPod, iPhone, iPad, Размер: 3.71 ГБ, Здоровье: 100%

Гость

0
16|5

30
1

11 май 2015, 01:39

Гость Перейти к последнему сообщению

В этой теме нет новых непрочитанных сообщений. Скачать торрент Проверен [iPad] Прирожденные убийцы / Natural Born Killers (Оливер Стоун / Oliver Stone) [1994, триллер, драма, мелодрама, криминал, BDRip][Режиссерская версия / Directors Cut]

в форуме Фильмы для iPod, iPhone, iPad, Размер: 3.28 ГБ, Здоровье: 100%

Гость

0
9|3

42
0

12 май 2015, 00:06

Гость Перейти к последнему сообщению

В этой теме нет новых непрочитанных сообщений. Скачать торрент Проверен [iPad] Пятый элемент / The Fifth Element (Люк Бессон / Luc Besson) [1997 г., Фантастика, Боевик, Триллер, Приключения, BDRip, 720p]

в форуме Фильмы для iPod, iPhone, iPad, Размер: 3.7 ГБ, Здоровье: 100%

Гость

0
20|7

72
0

11 май 2015, 01:22

Гость Перейти к последнему сообщению

В этой теме нет новых непрочитанных сообщений. Скачать торрент Зодиак / Zodiac (Дэвид Финчер / David Fincher) [2007, триллер, драма, криминал, BDRip] [Режиссёрская версия / Director's cut] Dub + AVO (sf@irat)

в форуме Триллеры, Размер: 1.46 ГБ, Здоровье: 100%

Anonymous

0
56|19

111
0

16 фев 2014, 13:08

Anonymous Перейти к последнему сообщению



Сейчас этот форум просматривают: нет зарегистрированных пользователей и гости: 1


Вы не можете начинать темы
Вы не можете отвечать на сообщения
Вы не можете редактировать свои сообщения
Вы не можете удалять свои сообщения
Вы не можете добавлять вложения

Перейти:  

!ВНИМАНИЕ!
 Ресурс не предоставляет электронные версии произведений, а занимается лишь коллекционированием и каталогизацией ссылок, присылаемых и публикуемых на форуме нашими читателями. Если вы являетесь правообладателем какого-либо представленного материала и не желаете чтобы ссылка на него находилась в нашем каталоге, свяжитесь с нами и мы незамедлительно удалим её. Файлы для обмена на трекере предоставлены пользователями сайта, и администрация не несёт ответственности за их содержание. Просьба не заливать файлы, защищенные авторскими правами, а также файлы нелегального содержания!