На всех торрентах на трекере установлена скидка на скачивание в размере 100 процентов(а).
 Возможность скачивания торрента НЕ зависит от ограничений при низком ратио, низком аплоаде, требуемом ратио или требуемом аплоаде.


Начать новую тему Ответить на тему
Статистика раздачи
Размер: 4.36 ГБ | Добавлен: 01 фев 2014, 19:05 | Скачали: 0
Сидеров: 8  [0 байт/сек]    Личеров: 2  [0 байт/сек]
Пред. тема | След. тема 

Автор
Сообщение

СообщениеДобавлено: 01 фев 2014, 19:05 

Название: Джон Ф. Кеннеди: Выстрелы в Далласе
Оригинальное название: JFK
Слоган: «He's a District Attorney. He will risk his life, the lives of his family, everything he holds dear for the one thing he holds sacred... the truth.»
Страна: США, Франция
Производство: Warner Bros. Pictures
Год: 1991
Продолжительность: 03:25:49
Жанр: триллер, драма, детектив, биография, история
Перевод: Дублированный (в тех местах где были вырезаны сцены присутствует двухголосый закадровый перевод) «Варус Видео» (RePack) + профессиональный (двухголосый, закадровый) + оригинальная звуковая дорожка.
Оригинальная аудиодорожка: английский
Субтитры: Русские, английские (внешние, srt*)

Сценарий: Оливер Стоун, Зэкари Склар, Джим Гаррисон, ...
Продюсер: А. Китман Хо, Оливер Стоун, Арнон Милчэн, ...
Оператор: Роберт Ричардсон
Композитор: Джон Уильямс
Художник: Виктор Кемпстер, Дерек Р. Хилл, Алан Томкинс, ...
Монтаж: Джо Хатшинг, Пьетро Скалия
Режиссер: Оливер Стоун / Oliver Stone
В ролях:
Кевин Костнер, Гари Олдман, Майкл Рукер, Брайан Дойл-Мюррэй, Джек Леммон, Лори Меткаф, Джо Пеши, Томми Ли Джонс, Кевин Бейкон, Сэлли Кёркленд, ...

Описание:
1963-й год. Весь мир шокирован известием об убийстве президента США Джона Кеннеди в Далласе. Пока вице-президент Линдон Джонсон принимает в самолете присягу на верность американскому народу, полиция задерживает бывшего морского пехотинца Ли Харви Освальда.

Именно ему в скором времени будет предъявлено обвинение в убийстве. Множество несоответствий и ошибок в проведении расследования, а также гибель 12 ключевых свидетелей, приведут к появлению новых версий убийства. Энергичный окружной прокурор Джим Гаррисон проводит собственное расследование, в ходе которого он смог ответить на вопрос: Кто убил президента Кеннеди?



Сэмпл: http://multi-up.com/546818

Качество: BDRip (источник: barichev / Blu-ray Remux / 1080p)
Формат: AVI
Видео кодек: XviD
Аудио кодек: AC3
Видео: 720x304 (2.37:1), 23.976 fps, XviD build 50 ~1874 kbps avg, 0.36 bit/pixel
Аудио 1: 48 kHz, AC3 Dolby Digital, 2/0 (L,R) ch, ~384.00 kbps avg dvo |DUB| Варус Видео (RePack)
Аудио 2: 48 kHz, AC3 Dolby Digital, 3/2 (L,C,R,l,r) + LFE ch, ~384.00 kbps avg eng |DVO|
Аудио 3: 48 kHz, AC3 Dolby Digital, 3/2 (L,C,R,l,r) + LFE ch, ~384.00 kbps avg eng |Оригинальная аудиодорожка|
MediaInfo
Общее
Полное имя : D:\Фильмы\1991 Джон Ф. Кеннеди Выстрелы в Далласе\1991 Джон Ф. Кеннеди Выстрелы в Далласе.avi
Формат : AVI
Формат/Информация : Audio Video Interleave
Профиль формата : OpenDML
Размер файла : 4,36 Гбайт
Продолжительность : 3 ч. 25 м.
Общий поток : 3035 Кбит/сек
Название фильма : DFK.vy'strely'.v.Dallase.1991.TRIPLE.BDRip.XviD.AC3.-HQCLUB
Режиссёр : Orbit
Программа кодирования : VirtualDubMod 1.5.4.1 (build 2178/release)
Библиотека кодирования : VirtualDubMod build 2178/release
Правообладатель : hqclub.net
Примечание : 18.07.2010

Видео
Идентификатор : 0
Формат : MPEG-4 Visual
Профиль формата : Advanced Simple@L5
Параметр BVOP формата : 1
Параметр QPel формата : Нет
Параметр GMC формата : Без точки перехода
Параметр матрицы формата : Выборочная
Идентификатор кодека : XVID
Идентификатор кодека/Подсказка : XviD
Продолжительность : 3 ч. 25 м.
Битрейт : 1865 Кбит/сек
Ширина : 720 пикс.
Высота : 304 пикс.
Соотношение сторон : 2,35:1
Частота кадров : 23,976 кадр/сек
Цветовое пространство : YUV
Подвыборка цветности : 4:2:0
Битовая глубина : 8 бит
Тип развёртки : Прогрессивная
Метод сжатия : С потерями
Бит/(Пиксели*Кадры) : 0.355
Размер потока : 2,68 Гбайт (61%)
Заголовок : DFK.vy'strely'.v.Dallase.1991.TRIPLE.BDRip.XviD.AC3.-HQCLUB
Библиотека кодирования : XviD 1.2.1 (UTC 2008-12-04)

Аудио #1
Идентификатор : 1
Формат : AC-3
Формат/Информация : Audio Coding 3
Расширение режима : CM (complete main)
Идентификатор кодека : 2000
Продолжительность : 3 ч. 25 м.
Вид битрейта : Постоянный
Битрейт : 384 Кбит/сек
Канал(ы) : 2 канала(ов)
Расположение каналов : Front: L R
Частота : 48,0 КГц
Битовая глубина : 16 бит
Метод сжатия : С потерями
Размер потока : 565 Мбайт (13%)
Выравнивание : Разделение по промежуткам
Продолжительность промежутка : 42 мс. (1,00 видеокадр)
Время предзагрузки промежутка : 500 ms

Аудио #2
Идентификатор : 2
Формат : AC-3
Формат/Информация : Audio Coding 3
Расширение режима : CM (complete main)
Идентификатор кодека : 2000
Продолжительность : 3 ч. 25 м.
Вид битрейта : Постоянный
Битрейт : 384 Кбит/сек
Канал(ы) : 6 канала(ов)
Расположение каналов : Front: L C R, Side: L R, LFE
Частота : 48,0 КГц
Битовая глубина : 16 бит
Метод сжатия : С потерями
Размер потока : 565 Мбайт (13%)
Выравнивание : Разделение по промежуткам
Продолжительность промежутка : 42 мс. (1,00 видеокадр)
Время предзагрузки промежутка : 500 ms

Аудио #3
Идентификатор : 3
Формат : AC-3
Формат/Информация : Audio Coding 3
Расширение режима : CM (complete main)
Идентификатор кодека : 2000
Продолжительность : 3 ч. 25 м.
Вид битрейта : Постоянный
Битрейт : 384 Кбит/сек
Канал(ы) : 6 канала(ов)
Расположение каналов : Front: L C R, Side: L R, LFE
Частота : 48,0 КГц
Битовая глубина : 16 бит
Метод сжатия : С потерями
Размер потока : 565 Мбайт (13%)
Выравнивание : Разделение по промежуткам
Продолжительность промежутка : 42 мс. (1,00 видеокадр)
Время предзагрузки промежутка : 500 ms
AviIbfo
File: 1991 Джон Ф. Кеннеди Выстрелы в Далласе.avi
Title: DFK.vy'strely'.v.Dallase.1991.TRIPLE.BDRip.XviD.AC3.-HQCLUB
Author: Orbit
Copyleft: hqclub.net
Comment: 18.07.2010
Filesize: 4467.46 Mb ( 4 684 474 368 bytes )
Play length: 03:25:49.410 (296090 frames)
Subtitles: Eng, Rus (SubRip format)
Video: 720x304 (2.37:1), 23.976 fps, XviD build 50 ~1875 kbps avg, 0.36 bit/pixel
Audio #1: 48 kHz, AC3 Dolby Digital, 2/0 (L,R) ch, ~384.00 kbps avg
Audio #2: 48 kHz, AC3 Dolby Digital, 3/2 (L,C,R,l,r) + LFE ch, ~384.00 kbps avg
Audio #3: 48 kHz, AC3 Dolby Digital, 3/2 (L,C,R,l,r) + LFE ch, ~384.00 kbps avg
Награды

Британская академия, 1993 год
Победитель (2):
* Лучший звук
* Лучший монтаж
Номинации (2):
* Лучший мужская роль второго плана (Томми Ли Джонс)
* Лучший адаптированный сценарий

Оскар, 1992 год
Победитель (2):
* Лучший работа оператора
* Лучший монтаж
Номинации (6):
* Лучший фильм
* Лучшая мужская роль второго плана (Томми Ли Джонс)
* Лучший режиссер (Оливер Стоун)
* Лучший адаптированный сценарий
* Лучший звук
* Лучший оригинальный саундтрек

Золотой глобус, 1992 год
Победитель (1):
* Лучший режиссер (Оливер Стоун)
Номинации (3):
* Лучший фильм (драма)
* Лучшая мужская роль (драма) (Кевин Костнер)
* Лучший сценарий

Номинации (1):
* Лучший фильм
Обложка
Скриншоты
Еще скриншоты
Скриншот c названием фильма
загрузка...
Правила, инструкции, FAQ!!!
Торрент  Добавлен [01 фев 2014, 19:05] Скачать торрент
Скачать торрент
[ Размер 22.63 КБ / Просмотров 22 ]

Статус  
 
Размер  4.36 ГБ
Приватный: Нет (DHT включён)
.torrent скачан  0
Как залить торрент? | Как скачать Torrent? | Как смотреть и слушать онлайн?  


     Отправить личное сообщение
   
Страница 1 из 1
Показать сообщения за:  Поле сортировки  
Начать новую тему Ответить на тему

   Похожие торренты   Автор   Ответы   Просмотры   Последнее сообщение 
В этой теме нет новых непрочитанных сообщений. Скачать торрент Проверен [iPad] Прирожденные убийцы / Natural Born Killers (Оливер Стоун / Oliver Stone) [1994, триллер, драма, мелодрама, криминал, BDRip][Режиссерская версия / Directors Cut]

в форуме Фильмы для iPod, iPhone, iPad, Размер: 3.28 ГБ, Здоровье: 100%

Гость

0
9|3

42
0

12 май 2015, 00:06

Гость Перейти к последнему сообщению

В этой теме нет новых непрочитанных сообщений. Скачать торрент Зодиак / Zodiac (Дэвид Финчер / David Fincher) [2007, триллер, драма, криминал, BDRip] [Режиссёрская версия / Director's cut] Dub + AVO (sf@irat)

в форуме Триллеры, Размер: 1.46 ГБ, Здоровье: 100%

Anonymous

0
56|19

108
0

16 фев 2014, 13:08

Anonymous Перейти к последнему сообщению

В этой теме нет новых непрочитанных сообщений. Скачать торрент Проверен [iPad] Уолл-стрит / Wall Street (Оливер Стоун / Oliver Stone) [1987, США, драма, BDRip] [Remastered]

в форуме Фильмы для iPod, iPhone, iPad, Размер: 3.75 ГБ, Здоровье: 100%

Anonymous

0
28|9

42
0

12 май 2015, 00:13

Anonymous Перейти к последнему сообщению

В этой теме нет новых непрочитанных сообщений. Скачать торрент Башни-близнецы / World Trade Center (Оливер Стоун / Oliver Stone) [2006, Драма, история, HDRip] Dub

в форуме Драмы, Мелодрамы, Размер: 1.45 ГБ, Здоровье: 0%

Anonymous

0
0|0

56
0

14 фев 2014, 07:47

Anonymous Перейти к последнему сообщению

В этой теме нет новых непрочитанных сообщений. Скачать торрент Зодиак / Zodiac (Дэвид Финчер / David Fincher) [2007, США, триллер, драма, криминал, детектив, история, HDRip] [Режиссерская Версия] AVO (Гаврилов)

в форуме Триллеры, Размер: 1.85 ГБ, Здоровье: 100%

Anonymous

0
35|11

69
0

14 апр 2014, 09:29

Anonymous Перейти к последнему сообщению



Сейчас этот форум просматривают: нет зарегистрированных пользователей и гости: 1


Вы не можете начинать темы
Вы не можете отвечать на сообщения
Вы не можете редактировать свои сообщения
Вы не можете удалять свои сообщения
Вы не можете добавлять вложения

Перейти:  

!ВНИМАНИЕ!
 Ресурс не предоставляет электронные версии произведений, а занимается лишь коллекционированием и каталогизацией ссылок, присылаемых и публикуемых на форуме нашими читателями. Если вы являетесь правообладателем какого-либо представленного материала и не желаете чтобы ссылка на него находилась в нашем каталоге, свяжитесь с нами и мы незамедлительно удалим её. Файлы для обмена на трекере предоставлены пользователями сайта, и администрация не несёт ответственности за их содержание. Просьба не заливать файлы, защищенные авторскими правами, а также файлы нелегального содержания!