На всех торрентах на трекере установлена скидка на скачивание в размере 100 процентов(а).
 Возможность скачивания торрента НЕ зависит от ограничений при низком ратио, низком аплоаде, требуемом ратио или требуемом аплоаде.


Начать новую тему Ответить на тему
Статистика раздачи
Размер: 1.31 ГБ | Добавлен: 20 янв 2015, 17:49 | Скачали: 4
Сидеров: 16  [0 байт/сек]    Личеров: 2417  [0 байт/сек]
Пред. тема | След. тема 

Автор
Сообщение

СообщениеДобавлено: 20 янв 2015, 17:49 

Название: Добро пожаловать в рай
Оригинальное название: Vice
Год выпуска: 2015
Жанр: Фантастика, боевик, триллер, приключения
Выпущено: США, Aperture Entertainment, Emmett/Furla Films
Режиссер: Брайан А Миллер
В ролях: Томас Джейн, Брюс Уиллис, Эмбир Чилдерс, Брайан Гринберг, Джонатон Шек, Шарлотта Кирк, Бретт Гранстафф, Райан О’Нан, Дэвид Гордон, Колин Эглсфилд

О фильме:
Действие происходит в относительно недалеком будущем, когда для богачей создан специальный город-курорт, основные обитатели которых и обслуга — андроиды. Туристы за соответствующую цену могут осуществить здесь самые безумные свои фантазии, а андроиды, пострадавшие от рук людей, направляются на перезагрузку памяти. Но однажды случается сбой, и женщина-андроид обретает память о всех кошмарах, которым богатые извращенцы подвергали ее и остальных искусственных людей. И она решает отомстить…




Качество: WEB-DLRip
Видео: XviD, 1748 Кбит/с, 720x304
Аудио: AC3, 2 ch, 192 Кбит/с
Продолжительность: 01:36:21
Перевод: Любительский двухголосый [RAIM & GUGU]

Семпл

General
Complete name : Vice.2015.HDRip.XviD.avi
Format : AVI
Format/Info : Audio Video Interleave
File size : 1.31 GiB
Duration : 1h 36mn
Overall bit rate : 1 950 Kbps
Writing application : VirtualDubMod 1.5.10.2 (build 2542/release)
Writing library : VirtualDubMod build 2542/release

Video
ID : 0
Format : MPEG-4 Visual
Format profile : Advanced Simple@L5
Format settings, BVOP : 2
Format settings, QPel : No
Format settings, GMC : No warppoints
Format settings, Matrix : Default (H.263)
Muxing mode : Packed bitstream
Codec ID : XVID
Codec ID/Hint : XviD
Duration : 1h 36mn
Bit rate : 1 672 Kbps
Width : 720 pixels
Height : 304 pixels
Display aspect ratio : 2.35:1
Frame rate : 23.976 fps
Color space : YUV
Chroma subsampling : 4:2:0
Bit depth : 8 bits
Scan type : Progressive
Compression mode : Lossy
Bits/(Pixel*Frame) : 0.319
Stream size : 1.13 GiB (86%)
Writing library : XviD 64

Audio
ID : 1
Format : AC-3
Format/Info : Audio Coding 3
Mode extension : CM (complete main)
Format settings, Endianness : Big
Codec ID : 2000
Duration : 1h 36mn
Bit rate mode : Constant
Bit rate : 192 Kbps
Channel(s) : 2 channels
Channel positions : Front: L R
Sampling rate : 48.0 KHz
Bit depth : 16 bits
Compression mode : Lossy
Stream size : 132 MiB (10%)
Alignment : Split accross interleaves
загрузка...
Правила, инструкции, FAQ!!!
Торрент  Добавлен [20 янв 2015, 17:49] Зарегистрируйтесь чтобы скачивать торрент

Статус
Проверен 
 
Размер  1.31 ГБ
Приватный: Нет (DHT включён)
.torrent скачан  4
Как залить торрент? | Как скачать Torrent? | Как смотреть и слушать онлайн?  


     Отправить личное сообщение
   
Страница 1 из 1
Показать сообщения за:  Поле сортировки  
Начать новую тему Ответить на тему

   Похожие торренты   Автор   Ответы   Просмотры   Последнее сообщение 
В этой теме нет новых непрочитанных сообщений. Добро пожаловать в рай / Vice (2015) WEB-DL [H.264/720p-LQ]

в форуме Новинки кино, Размер: 3.16 ГБ, Здоровье: 100%

Anonymous

0
46|2

3623
5

20 янв 2015, 23:45

Anonymous Перейти к последнему сообщению

В этой теме нет новых непрочитанных сообщений. Скачать торрент Проверен Добро пожаловать в рай / Vice (2014) BDRip [576p] iPad

в форуме Фильмы для iPod, iPhone, iPad, Размер: 1.7 ГБ, Здоровье: 100%

Гость

0
2|1

403
2

13 сен 2015, 01:30

Гость Перейти к последнему сообщению

В этой теме нет новых непрочитанных сообщений. Скачать торрент Проверен Такимото Тацухико - Welcome to the NHK / Добро пожаловать в NHK [Adrenalin, 2015, Социальная сатира, комедия, драма, 128 kbps]

в форуме Аудиокниги (AAC, ALAC), Размер: 360.59 МБ, Здоровье: 0%

Anonymous

0
0|0

0
0

28 авг 2016, 16:21

Anonymous Перейти к последнему сообщению

В этой теме нет новых непрочитанных сообщений. Скачать торрент Проверен (Neo-Retro) Со Мною Вот Что - песни из альбома "Добро Пожаловать в Машину" - 2015, MP3, 320 kbps

в форуме Русский Рок, Размер: 56.04 МБ, Здоровье: 0%

Anonymous

0
0|0

1
0

22 авг 2016, 02:05

Anonymous Перейти к последнему сообщению

В этой теме нет новых непрочитанных сообщений. Скачать торрент Проверен Znaki - Добро Пожаловать в Мой Мир (2013) [MP3|320 кб/с]<Rock>

в форуме Русский Рок, Размер: 96.57 МБ, Здоровье: 100%

Anonymous

0
10|1

140
1

03 июл 2014, 06:47

Anonymous Перейти к последнему сообщению



Сейчас этот форум просматривают: нет зарегистрированных пользователей и гости: 2


Вы не можете начинать темы
Вы не можете отвечать на сообщения
Вы не можете редактировать свои сообщения
Вы не можете удалять свои сообщения
Вы не можете добавлять вложения

Перейти:  

!ВНИМАНИЕ!
 Ресурс не предоставляет электронные версии произведений, а занимается лишь коллекционированием и каталогизацией ссылок, присылаемых и публикуемых на форуме нашими читателями. Если вы являетесь правообладателем какого-либо представленного материала и не желаете чтобы ссылка на него находилась в нашем каталоге, свяжитесь с нами и мы незамедлительно удалим её. Файлы для обмена на трекере предоставлены пользователями сайта, и администрация не несёт ответственности за их содержание. Просьба не заливать файлы, защищенные авторскими правами, а также файлы нелегального содержания!