На всех торрентах на трекере установлена скидка на скачивание в размере 100 процентов(а).
 Возможность скачивания торрента НЕ зависит от ограничений при низком ратио, низком аплоаде, требуемом ратио или требуемом аплоаде.


Начать новую тему Ответить на тему
Статистика раздачи
Размер: 5.73 ГБ | Добавлен: 01 фев 2015, 21:02 | Скачали: 879
Сидеров: 355  [0 байт/сек]    Личеров: 15  [0 байт/сек]
Пред. тема | След. тема 

Автор
Сообщение

СообщениеДобавлено: 13 янв 2015, 19:12 

Название: Джон Уик
Оригинальное название: John Wick
Год выхода: 2014
Жанр: боевик, триллер
Режиссер: Дэвид Лейтч, Чад Стахелски
В ролях: Киану Ривз, Микаэл Нюквист, Элфи Оуэн-Аллен, Уиллем Дефо, Дин Уинтерс, Эдрианн Палики, Омер Барнеа, Тоби Мур, Дэниэл Бернхард, Бриджет Мойнэхэн
О фильме: Джон Уик — бывший наемный убийца — ведет размеренную жизнь, когда преступник крадет его любимый Mustang 1969 года и попутно убивает собаку Дейзи, единственное живое напоминание об умершей жене. Жажда мести пробуждает в нем, казалось, утерянную хватку…

Выпущено: Китай, Канада, США / 87Eleven, Company Films, DefyNite Films
Продолжительность: 01:41:12
Перевод: Профессиональный (полное дублирование)
Авторский (одноголосый, закадровый) - Д. Есарев, А. Матвеев
Файл
Качество: BDRip 720p
Формат: MKV
Видео: MPEG4/AVC, 5547 Кбит/сек, 1280х534 (2.40:1), 23.976 кадра/сек
Аудио 1: AC3, 6 каналов, 640 Кбит/сек | Русский
Аудио 2: AC3, 6 каналов, 640 Кбит/сек | Русский - Матвеев
Аудио 3: AC3, 6 каналов, 640 Кбит/сек | Русский - Есарев
Аудио 4: AC3, 6 каналов, 640 Кбит/сек | Английский
Субтитры: Русские (Forced animated, Forced, Full), украинские, английские (Full, SDH)
Навигация по главам: Есть
Общее
Уникальный идентификатор : 179357974200504197460838291700286134398 (0x86EF16DE2EC3323A8E0A3BBCF686987E)
Полное имя : John Wick. (2014) BDRip 720p.mkv
Формат : Matroska
Версия формата : Version 2
Размер файла : 5,73 Гбайт
Продолжительность : 1 ч. 41 м.
Общий поток : 8105 Кбит/сек
Название фильма : John Wick. 2014
Дата кодирования : UTC 2015-02-01 15:18:25
Программа кодирования : mkvmerge v5.8.0 ('No Sleep / Pillow') built on Sep 2 2012 15:37:04
Библиотека кодирования : libebml v1.2.3 + libmatroska v1.3.0
Видео
Идентификатор : 1
Формат : AVC
Формат/Информация : Advanced Video Codec
Профиль формата : High@L4.1
Параметр CABAC формата : Да
Параметр ReFrames формата : 12 кадров
Идентификатор кодека : V_MPEG4/ISO/AVC
Продолжительность : 1 ч. 41 м.
Битрейт : 5547 Кбит/сек
Ширина : 1280 пикселей
Высота : 534 пикселя
Соотношение сторон : 2,40:1
Режим частоты кадров : Постоянный
Частота кадров : 23,976 кадра/сек
Цветовое пространство : YUV
Субдискретизация насыщенности : 4:2:0
Битовая глубина : 8 бит
Тип развёртки : Прогрессивная
Бит/(Пиксели*Кадры) : 0.338
Размер потока : 3,81 Гбайт (66%)
Заголовок : WiKi
Библиотека кодирования : x264 core 129 r2245 bc13772
Настройки программы : cabac=1 / ref=12 / deblock=1:-3:-3 / analyse=0x3:0x133 / me=umh / subme=11 / psy=1 / psy_rd=1.10:0.15 / mixed_ref=1 / me_range=32 / chroma_me=1 / trellis=2 / 8x8dct=1 / cqm=0 / deadzone=21,11 / fast_pskip=0 / chroma_qp_offset=-3 / threads=12 / lookahead_threads=2 / sliced_threads=0 / nr=0 / decimate=1 / interlaced=0 / bluray_compat=0 / constrained_intra=0 / bframes=8 / b_pyramid=2 / b_adapt=2 / b_bias=0 / direct=3 / weightb=1 / open_gop=0 / weightp=2 / keyint=250 / keyint_min=23 / scenecut=40 / intra_refresh=0 / rc_lookahead=60 / rc=2pass / mbtree=1 / bitrate=5547 / ratetol=1.0 / qcomp=0.60 / qpmin=0 / qpmax=69 / qpstep=4 / cplxblur=20.0 / qblur=0.5 / ip_ratio=1.40 / aq=1:0.80
Язык : English
Default : Да
Forced : Нет
Аудио #1
Идентификатор : 2
Формат : AC-3
Формат/Информация : Audio Coding 3
Расширение режима : CM (complete main)
Параметр Endianness формата : Big
Идентификатор кодека : A_AC3
Продолжительность : 1 ч. 41 м.
Вид битрейта : Постоянный
Битрейт : 640 Кбит/сек
Каналы : 6 каналов
Расположение каналов : Front: L C R, Side: L R, LFE
Частота : 48,0 КГц
Битовая глубина : 16 бит
Метод сжатия : С потерями
Размер потока : 463 Мбайт (8%)
Заголовок : DUB
Язык : Russian
Default : Да
Forced : Нет
Аудио #2
Идентификатор : 3
Формат : AC-3
Формат/Информация : Audio Coding 3
Расширение режима : CM (complete main)
Параметр Endianness формата : Big
Идентификатор кодека : A_AC3
Продолжительность : 1 ч. 41 м.
Вид битрейта : Постоянный
Битрейт : 640 Кбит/сек
Каналы : 6 каналов
Расположение каналов : Front: L C R, Side: L R, LFE
Частота : 48,0 КГц
Битовая глубина : 16 бит
Метод сжатия : С потерями
Размер потока : 463 Мбайт (8%)
Заголовок : A | Матвеев
Язык : Russian
Default : Нет
Forced : Нет
Аудио #3
Идентификатор : 4
Формат : AC-3
Формат/Информация : Audio Coding 3
Расширение режима : CM (complete main)
Параметр Endianness формата : Big
Идентификатор кодека : A_AC3
Продолжительность : 1 ч. 41 м.
Вид битрейта : Постоянный
Битрейт : 640 Кбит/сек
Каналы : 6 каналов
Расположение каналов : Front: L C R, Side: L R, LFE
Частота : 48,0 КГц
Битовая глубина : 16 бит
Метод сжатия : С потерями
Размер потока : 463 Мбайт (8%)
Заголовок : A | Есарев
Язык : Russian
Default : Нет
Forced : Нет
Аудио #4
Идентификатор : 5
Формат : AC-3
Формат/Информация : Audio Coding 3
Расширение режима : CM (complete main)
Параметр Endianness формата : Big
Идентификатор кодека : A_AC3
Продолжительность : 1 ч. 41 м.
Вид битрейта : Постоянный
Битрейт : 640 Кбит/сек
Каналы : 6 каналов
Расположение каналов : Front: L C R, Side: L R, LFE
Частота : 48,0 КГц
Битовая глубина : 16 бит
Метод сжатия : С потерями
Размер потока : 463 Мбайт (8%)
Заголовок : Original
Язык : English
Default : Нет
Forced : Нет
Текст #1
Идентификатор : 6
Формат : ASS
Идентификатор кодека : S_TEXT/ASS
Идентификатор кодека/Информация : Advanced Sub Station Alpha
Метод сжатия : Без потерь
Заголовок : Forced | Анимированные
Язык : Russian
Default : Да
Forced : Да
Текст #2
Идентификатор : 7
Формат : UTF-8
Идентификатор кодека : S_TEXT/UTF8
Идентификатор кодека/Информация : UTF-8 Plain Text
Заголовок : Forced
Язык : Russian
Default : Нет
Forced : Нет
Текст #3
Идентификатор : 8
Формат : UTF-8
Идентификатор кодека : S_TEXT/UTF8
Идентификатор кодека/Информация : UTF-8 Plain Text
Заголовок : Full
Язык : Russian
Default : Нет
Forced : Нет
Текст #4
Идентификатор : 9
Формат : UTF-8
Идентификатор кодека : S_TEXT/UTF8
Идентификатор кодека/Информация : UTF-8 Plain Text
Заголовок : Full
Язык : Ukrainian
Default : Нет
Forced : Нет
Текст #5
Идентификатор : 10
Формат : UTF-8
Идентификатор кодека : S_TEXT/UTF8
Идентификатор кодека/Информация : UTF-8 Plain Text
Заголовок : Full
Язык : English
Default : Нет
Forced : Нет
Текст #6
Идентификатор : 11
Формат : UTF-8
Идентификатор кодека : S_TEXT/UTF8
Идентификатор кодека/Информация : UTF-8 Plain Text
Заголовок : SDH
Язык : English
Default : Нет
Forced : Нет
Меню
00:00:00.000 : en:00:00:00.000
00:04:57.506 : en:00:04:57.506
00:12:21.866 : en:00:12:21.866
00:17:07.735 : en:00:17:07.735
00:26:25.167 : en:00:26:25.167
00:32:40.250 : en:00:32:40.250
00:36:24.599 : en:00:36:24.599
00:42:16.033 : en:00:42:16.033
00:45:33.272 : en:00:45:33.272
00:55:02.507 : en:00:55:02.507
00:59:27.564 : en:00:59:27.564
01:06:13.428 : en:01:06:13.428
01:14:15.910 : en:01:14:15.910
01:19:13.040 : en:01:19:13.040
01:27:29.786 : en:01:27:29.786
01:32:24.789 : en:01:32:24.789


Релиз от:
загрузка...
Правила, инструкции, FAQ!!!
Торрент  Добавлен [01 фев 2015, 21:02] Зарегистрируйтесь чтобы скачивать торрент

Статус
Проверен 
 
Размер  5.73 ГБ
Приватный: Нет (DHT включён)
.torrent скачан  879
Как залить торрент? | Как скачать Torrent? | Как смотреть и слушать онлайн?  


     Отправить личное сообщение
   
Страница 1 из 1
Показать сообщения за:  Поле сортировки  
Начать новую тему Ответить на тему

   Похожие торренты   Автор   Ответы   Просмотры   Последнее сообщение 
В этой теме нет новых непрочитанных сообщений. Скачать торрент Проверен Джон Уик / John Wick (2014) BDRip 1080p | D, A

в форуме 720p | 1080p, Размер: 6.39 ГБ, Здоровье: 100%

Гость

0
356|164

197
387

10 апр 2015, 23:45

Гость Перейти к последнему сообщению

В этой теме нет новых непрочитанных сообщений. Джон Уик / John Wick (2014) WEB-DLRip | Чистый Звук | D

в форуме Новинки кино, Размер: 1.37 ГБ, Здоровье: 100%

Гость

0
1855|979

1017
17

18 янв 2015, 21:44

Гость Перейти к последнему сообщению

В этой теме нет новых непрочитанных сообщений. Скачать торрент Проверен Джон Уик / John Wick (2014) WEB-DLRip | Звук с CAMRip

в форуме Мусор, Размер: 1.37 ГБ, Здоровье: 100%

Гость

0
4208|1858

863
3

13 янв 2015, 19:10

Гость Перейти к последнему сообщению

В этой теме нет новых непрочитанных сообщений. Скачать торрент Кристина / Christine (Джон Карпентер / John Carpenter) [1983, США, Ужасы, триллер, драма, детектив, BDRip 720p]

в форуме 720p | 1080p, Размер: 5.4 ГБ, Здоровье: 100%

Anonymous

0
7|2

80
0

25 фев 2014, 22:41

Anonymous Перейти к последнему сообщению

В этой теме нет новых непрочитанных сообщений. Скачать торрент Проверен Elton John - The Million Dollar Piano [2014, Pop Rock, BDRip-AVC 720p]

в форуме Концерты (HD-Video), Размер: 5.44 ГБ, Здоровье: 100%

Anonymous

0
5|1

6
0

23 окт 2016, 14:15

Anonymous Перейти к последнему сообщению



Сейчас этот форум просматривают: нет зарегистрированных пользователей и гости: 5


Вы не можете начинать темы
Вы не можете отвечать на сообщения
Вы не можете редактировать свои сообщения
Вы не можете удалять свои сообщения
Вы не можете добавлять вложения

Перейти:  

!ВНИМАНИЕ!
 Ресурс не предоставляет электронные версии произведений, а занимается лишь коллекционированием и каталогизацией ссылок, присылаемых и публикуемых на форуме нашими читателями. Если вы являетесь правообладателем какого-либо представленного материала и не желаете чтобы ссылка на него находилась в нашем каталоге, свяжитесь с нами и мы незамедлительно удалим её. Файлы для обмена на трекере предоставлены пользователями сайта, и администрация не несёт ответственности за их содержание. Просьба не заливать файлы, защищенные авторскими правами, а также файлы нелегального содержания!