На всех торрентах на трекере установлена скидка на скачивание в размере 100 процентов(а).
 Возможность скачивания торрента НЕ зависит от ограничений при низком ратио, низком аплоаде, требуемом ратио или требуемом аплоаде.


Начать новую тему Ответить на тему
Статистика раздачи
Размер: 9.34 ГБ | Добавлен: 13 дек 2014, 13:49 | Скачали: 3355
Сидеров: 118  [0 байт/сек]    Личеров: 4  [0 байт/сек]
Пред. тема | След. тема 

Автор
Сообщение

СообщениеДобавлено: 13 дек 2014, 13:49 

Название: Великий уравнитель
Оригинальное название: The Equalizer
Год выхода: 2014
Жанр: боевик, триллер, криминал
Режиссер: Антуан Фукуа
В ролях: Дензел Вашингтон, Мартон Чокаш, Хлоя Грейс Морец, Дэвид Харбор, Хейли Беннетт, Билл Пуллман, Мелисса Лео, Дэвид Мюнье, Джонни Скуртис, Алекс Видов

О фильме: Роберт МакКолл — бывший спецназовец. После увольнения со службы он собирается начать нормальную мирную жизнь, дав себе обещание, больше никогда не брать в руки оружия. Но в один прекрасный момент он встречает молодую девушку, зарабатывающую на жизнь проституцией, которую на его глазах избивают бандиты и увозят в неизвестном направлении. Тогда он решает отыскать ее, после чего вступает в неравную схватку с русской мафией и продажными агентами ЦРУ. Ради справедливости он готов нарушить собственное обещание и применить оружие против людей, которые просто не заслуживают жить в этом мире…



Выпущено: США
Продолжительность: 02:12:31
Озвучивание: Авторское (одноголосое) [Дмитрий Есарев]


Формат: MKV
Качество: BDRip 720p
Видео: MPEG-4 AVC, 5596 Кбит/с, 1280x536
Аудио: Русский, английский (DTS, 6 ch, 1536 Кбит/c)
Субтитры: English
Размер: 9.34 ГБ


Общее
Уникальный идентификатор : 186414762591134213416115810611052672717 (0x8C3E2D65D3C5A08C95D832C1B8A3F6CD)
Полное имя : G:4The Equalizer.2014.BDRip.720p.AVO.Esarev.mkv
Формат : Matroska
Версия формата : Version 4 / Version 2
Размер файла : 9,34 Гбайт
Продолжительность : 2 ч. 12 м.
Общий поток : 10,1 Мбит/сек
Название фильма : Релиз Переулка Переводмана
Дата кодирования : UTC 2014-12-13 03:54:07
Программа кодирования : mkvmerge v7.3.0 ('Nouages') 64bit built on Oct 22 2014 18:53:34
Библиотека кодирования : libebml v1.3.0 + libmatroska v1.4.1
_STATISTICS_WRITING_APP : mkvmerge v7.3.0 ('Nouages') 64bit built on Oct 22 2014 18:53:34
_STATISTICS_WRITING_DATE_UTC : 2014-12-13 03:54:07
_STATISTICS_TAGS : BPS DURATION NUMBER_OF_FRAMES NUMBER_OF_BYTES
DURATION : 02:12:02.923000000
NUMBER_OF_FRAMES : 742774
NUMBER_OF_BYTES : 1495204062

Видео
Идентификатор : 1
Формат : AVC
Формат/Информация : Advanced Video Codec
Профиль формата : High@L4.1
Параметр CABAC формата : Да
Параметр ReFrames формата : 5 кадров
Идентификатор кодека : V_MPEG4/ISO/AVC
Продолжительность : 2 ч. 12 м.
Битрейт : 5596 Кбит/сек
Ширина : 1280 пикселей
Высота : 536 пикселей
Соотношение сторон : 2,40:1
Режим частоты кадров : Постоянный
Частота кадров : 23,976 кадра/сек
Цветовое пространство : YUV
Субдискретизация насыщенности : 4:2:0
Битовая глубина : 8 бит
Тип развёртки : Прогрессивная
Бит/(Пиксели*Кадры) : 0.340
Размер потока : 4,98 Гбайт (53%)
Библиотека кодирования : x264 core 142 r2479 dd79a61
Настройки программы : cabac=1 / ref=5 / deblock=1:0:0 / analyse=0x3:0x133 / me=umh / subme=7 / psy=1 / psy_rd=1.00:0.00 / mixed_ref=1 / me_range=16 / chroma_me=1 / trellis=1 / 8x8dct=1 / cqm=0 / deadzone=21,11 / fast_pskip=0 / chroma_qp_offset=-2 / threads=18 / lookahead_threads=3 / sliced_threads=0 / nr=0 / decimate=1 / interlaced=0 / bluray_compat=0 / constrained_intra=0 / bframes=3 / b_pyramid=2 / b_adapt=1 / b_bias=0 / direct=1 / weightb=1 / open_gop=0 / weightp=2 / keyint=250 / keyint_min=23 / scenecut=40 / intra_refresh=0 / rc_lookahead=40 / rc=2pass / mbtree=1 / bitrate=5596 / ratetol=1.0 / qcomp=0.60 / qpmin=0 / qpmax=69 / qpstep=4 / cplxblur=20.0 / qblur=0.5 / ip_ratio=1.40 / aq=1:1.00
Язык : English
Default : Да
Forced : Нет
_STATISTICS_WRITING_APP : mkvmerge v7.3.0 ('Nouages') 64bit built on Oct 22 2014 18:53:34
_STATISTICS_WRITING_DATE_UTC : 2014-12-13 03:54:07
_STATISTICS_TAGS : BPS DURATION NUMBER_OF_FRAMES NUMBER_OF_BYTES
DURATION : 02:12:02.928000000
NUMBER_OF_FRAMES : 189960
NUMBER_OF_BYTES : 5541619358

Аудио #1
Идентификатор : 2
Формат : DTS
Формат/Информация : Digital Theater Systems
Режим : 16
Параметр Endianness формата : Big
Идентификатор кодека : A_DTS
Продолжительность : 2 ч. 12 м.
Вид битрейта : Постоянный
Битрейт : 1510 Кбит/сек
Каналы : 6 каналов
Расположение каналов : Front: L C R, Side: L R, LFE
Частота : 48,0 КГц
Битовая глубина : 24 бит
Метод сжатия : С потерями
Размер потока : 1,39 Гбайт (15%)
Заголовок : Есарев (ненормативный)
Язык : Russian
Default : Да
Forced : Нет

Аудио #2
Идентификатор : 3
Формат : DTS
Формат/Информация : Digital Theater Systems
Режим : 16
Параметр Endianness формата : Big
Идентификатор кодека : A_DTS
Продолжительность : 2 ч. 12 м.
Вид битрейта : Постоянный
Битрейт : 1510 Кбит/сек
Каналы : 6 каналов
Расположение каналов : Front: L C R, Side: L R, LFE
Частота : 48,0 КГц
Битовая глубина : 24 бит
Метод сжатия : С потерями
Размер потока : 1,39 Гбайт (15%)
Заголовок : Есарев (цензурный)
Язык : Russian
Default : Нет
Forced : Нет

Аудио #3
Идентификатор : 4
Формат : DTS
Формат/Информация : Digital Theater Systems
Режим : 16
Параметр Endianness формата : Big
Идентификатор кодека : A_DTS
Продолжительность : 2 ч. 12 м.
Вид битрейта : Постоянный
Битрейт : 1509 Кбит/сек
Каналы : 6 каналов
Расположение каналов : Front: L C R, Side: L R, LFE
Частота : 48,0 КГц
Битовая глубина : 24 бит
Метод сжатия : С потерями
Размер потока : 1,39 Гбайт (15%)
Язык : English
Default : Нет
Forced : Нет

Текст
Идентификатор : 5
Формат : UTF-8
Идентификатор кодека : S_TEXT/UTF8
Идентификатор кодека/Информация : UTF-8 Plain Text
Заголовок : Forced
Язык : English
Default : Да
Forced : Да

Меню
00:00:00.000 : en:00:00:00.000
00:06:49.659 : en:00:06:49.659
00:13:03.574 : en:00:13:03.574
00:20:55.796 : en:00:20:55.796
00:25:48.755 : en:00:25:48.755
00:35:26.458 : en:00:35:26.458
00:46:32.123 : en:00:46:32.123
00:55:44.007 : en:00:55:44.007
01:03:59.419 : en:01:03:59.419
01:13:53.054 : en:01:13:53.054
01:20:58.729 : en:01:20:58.729
01:31:09.339 : en:01:31:09.339
01:38:37.745 : en:01:38:37.745
01:47:28.984 : en:01:47:28.984
01:55:38.265 : en:01:55:38.265
02:00:01.486 : en:02:00:01.486










загрузка...
Правила, инструкции, FAQ!!!
Торрент  Добавлен [13 дек 2014, 13:49] Зарегистрируйтесь чтобы скачивать торрент

Статус
Проверен 
 
Размер  9.34 ГБ
Приватный: Нет (DHT включён)
.torrent скачан  3355
Как залить торрент? | Как скачать Torrent? | Как смотреть и слушать онлайн?  


     Отправить личное сообщение
   
Страница 1 из 1
Показать сообщения за:  Поле сортировки  
Начать новую тему Ответить на тему

   Похожие торренты   Автор   Ответы   Просмотры   Последнее сообщение 
В этой теме нет новых непрочитанных сообщений. Скачать торрент Проверен Великий уравнитель / The Equalizer (2014) BDRip | Лицензия

в форуме Боевики, Размер: 2.18 ГБ, Здоровье: 100%

Гость

0
920|42

223
4830

28 дек 2014, 00:19

Гость Перейти к последнему сообщению

В этой теме нет новых непрочитанных сообщений. Скачать торрент Проверен Великий уравнитель / The Equalizer (2014) BDRip 1080p | Чистый звук | A

в форуме 720p | 1080p, Размер: 11.07 ГБ, Здоровье: 100%

Гость

0
40|2

191
273

14 дек 2014, 12:00

Гость Перейти к последнему сообщению

В этой теме нет новых непрочитанных сообщений. Великий уравнитель / The Equalizer (2014) HDRip | Есарев

в форуме Новинки кино, Размер: 1.37 ГБ, Здоровье: 100%

Гость

0
307|1

1181
10683

13 дек 2014, 13:45

Гость Перейти к последнему сообщению

В этой теме нет новых непрочитанных сообщений. Скачать торрент Проверен [TR24][OF] Guerilla Toss - 367 Equalizer - 2014 (Noise Rock, No Wave, Toxic Dance, Avantgarde, Punk)

в форуме Hi-Res stereo (рок), Размер: 191.49 МБ, Здоровье: 100%

Anonymous

0
2|1

4
0

23 авг 2016, 20:02

Anonymous Перейти к последнему сообщению

В этой теме нет новых непрочитанных сообщений. Скачать торрент Проверен Великий тигр / Daeho (2015) WEB-DLRip 720p | L2

в форуме 720p | 1080p, Размер: 4.75 ГБ, Здоровье: 100%

Anonymous

0
311|44

111
150

20 июл 2016, 22:03

Anonymous Перейти к последнему сообщению



Сейчас этот форум просматривают: нет зарегистрированных пользователей и гости: 1


Вы не можете начинать темы
Вы не можете отвечать на сообщения
Вы не можете редактировать свои сообщения
Вы не можете удалять свои сообщения
Вы не можете добавлять вложения

Перейти:  

!ВНИМАНИЕ!
 Ресурс не предоставляет электронные версии произведений, а занимается лишь коллекционированием и каталогизацией ссылок, присылаемых и публикуемых на форуме нашими читателями. Если вы являетесь правообладателем какого-либо представленного материала и не желаете чтобы ссылка на него находилась в нашем каталоге, свяжитесь с нами и мы незамедлительно удалим её. Файлы для обмена на трекере предоставлены пользователями сайта, и администрация не несёт ответственности за их содержание. Просьба не заливать файлы, защищенные авторскими правами, а также файлы нелегального содержания!