На всех торрентах на трекере установлена скидка на скачивание в размере 100 процентов(а).
 Возможность скачивания торрента НЕ зависит от ограничений при низком ратио, низком аплоаде, требуемом ратио или требуемом аплоаде.


Начать новую тему Ответить на тему
Статистика раздачи
Размер: 1.37 ГБ | Добавлен: 18 окт 2014, 21:53 | Скачали: 1
Сидеров: 0  [0 байт/сек]    Личеров: 1  [0 байт/сек]
Пред. тема | След. тема 

Автор
Сообщение

СообщениеДобавлено: 18 окт 2014, 21:53 

Год выпуска: 2014
Производство: Южная Корея
Жанр: Драма, Криминал, Боевик

Режиссер: Пом Гю Чо / Beom-gu Cho
Актеры: Киль Кан Ан, Сон Ги Ан, Чжин Хёк Чхве, У Сон Чон, Ин Квон Ким, Бом Су Ли, Си Ён Ли, Мён Су Ким (II), Иль Хва Чхве, Тхэ Вон Квон, Сон У Пэ, Со Хён Ан, Хэ Кён Чон

Описание фильма:
Тэ-сок — профессиональный игрок в Го. Его брат любил играть в Го на деньги и был убит группировкой шулеров. Освободившись из тюрьмы, Тэ-сок собирает команду единомышленников и ставит перед собой цель — отомстить за смерть брата.

Перевод: Двуголосый закадровый, любительский
Озвучка / Автор перевода: DeadSno & den904
Субтитры: Отсутствуют



Дата мировой премьеры: 2 июля 2014

Продолжительность: 01:57:49
Качество видео: HDTVRip

Видеокодек: DivX 5
Битрейт видео: ~1465kbps
Размер кадра: 720x304
Аудиокодек: AC3 2.0
Битрейт аудио: 192kbps
Format : AVI
Format/Info : Audio Video Interleave
File size : 1.37 GiB
Duration : 1h 57mn
Overall bit rate : 1 667 Kbps
Writing application : VirtualDubMod 1.5.10.3 | www.virtualdub-fr.org || (build 2550/release)
Writing library : VirtualDubMod build 2550/release

Video
ID : 0
Format : MPEG-4 Visual
Format profile : Advanced Simple@L5
Format settings, BVOP : Yes
Format settings, QPel : No
Format settings, GMC : No warppoints
Format settings, Matrix : Default (MPEG)
Codec ID : DX50
Codec ID/Hint : DivX 5
Duration : 1h 57mn
Bit rate : 1 465 Kbps
Width : 720 pixels
Height : 304 pixels
Display aspect ratio : 2.35:1
Frame rate : 23.976 fps
Color space : YUV
Chroma subsampling : 4:2:0
Bit depth : 8 bits
Scan type : Progressive
Compression mode : Lossy
Bits/(Pixel*Frame) : 0.279
Stream size : 1.21 GiB (88%)
Writing library : XviD 1.2.1 (UTC 2008-12-04)

Audio
ID : 1
Format : AC-3
Format/Info : Audio Coding 3
Mode extension : CM (complete main)
Format settings, Endianness : Big
Codec ID : 2000
Duration : 1h 57mn
Bit rate mode : Constant
Bit rate : 192 Kbps
Channel count : 2 channels
Channel positions : Front: L R
Sampling rate : 48.0 KHz
Bit depth : 16 bits
Compression mode : Lossy
Stream size : 162 MiB (12%)
Alignment : Split accross interleaves
Interleave, duration : 42 ms (1.00 video frame)
Interleave, preload duration : 500 ms
Скриншоты:

загрузка...
Правила, инструкции, FAQ!!!
Торрент  Добавлен [18 окт 2014, 21:53] Зарегистрируйтесь чтобы скачивать торрент

Статус
Проверен 
 
Размер  1.37 ГБ
Приватный: Нет (DHT включён)
.torrent скачан  1
Как залить торрент? | Как скачать Torrent? | Как смотреть и слушать онлайн?  


     Отправить личное сообщение
   
Страница 1 из 1
Показать сообщения за:  Поле сортировки  
Начать новую тему Ответить на тему

   Похожие торренты   Автор   Ответы   Просмотры   Последнее сообщение 
В этой теме нет новых непрочитанных сообщений. Скачать торрент Проверен Одно движение Божье / Ход Бога / God's One Move / The Divine Move (2014) HDRip

в форуме Драмы, Мелодрамы, Размер: 745.82 МБ, Здоровье: 100%

Anonymous

0
786|81

89
1951

27 окт 2014, 12:43

Anonymous Перейти к последнему сообщению

В этой теме нет новых непрочитанных сообщений. Скачать торрент Проверен Ход Бога / Одно движение Божье / God's One Move (2014) BDRip-AVC

в форуме Боевики, Размер: 2.17 ГБ, Здоровье: 100%

Гость

0
251|4

75
3270

25 дек 2014, 19:43

Гость Перейти к последнему сообщению

В этой теме нет новых непрочитанных сообщений. Скачать торрент Проверен Martha Peterson / Марта Петерсон - Move Without Pain / Движение без боли [2011, EPUB, MOBI, ENG]

в форуме Физкультура, фитнес, бодибилдинг, Размер: 15.92 МБ, Здоровье: 0%

Anonymous

0
0|0

0
0

05 окт 2016, 00:21

Anonymous Перейти к последнему сообщению

В этой теме нет новых непрочитанных сообщений. Скачать торрент Проверен [DTSCD][OF] Move D & Namlook - Sons of Kraut / Move D & Peter Namlook - Drawing of a New Decade / Move D & Namlook XX - Taygete - 2006, 2009

в форуме DTS CD / SACD-R, Размер: 2.02 ГБ, Здоровье: 100%

Anonymous

0
6|5

34
2

13 сен 2016, 23:18

Anonymous Перейти к последнему сообщению

В этой теме нет новых непрочитанных сообщений. Закрыто правообладателем Элизабет Джордж | Всего одно злое дело (2014) [FB2] Данный торрент является блокированным, причина: Закрыто правообладателем

в форуме Детективы и Боевики, Размер: 3.07 МБ, Здоровье: 100%

Anonymous

0
30|2

70
2

20 сен 2014, 22:16

Anonymous Перейти к последнему сообщению



Сейчас этот форум просматривают: нет зарегистрированных пользователей и гости: 2


Вы не можете начинать темы
Вы не можете отвечать на сообщения
Вы не можете редактировать свои сообщения
Вы не можете удалять свои сообщения
Вы не можете добавлять вложения

Перейти:  

!ВНИМАНИЕ!
 Ресурс не предоставляет электронные версии произведений, а занимается лишь коллекционированием и каталогизацией ссылок, присылаемых и публикуемых на форуме нашими читателями. Если вы являетесь правообладателем какого-либо представленного материала и не желаете чтобы ссылка на него находилась в нашем каталоге, свяжитесь с нами и мы незамедлительно удалим её. Файлы для обмена на трекере предоставлены пользователями сайта, и администрация не несёт ответственности за их содержание. Просьба не заливать файлы, защищенные авторскими правами, а также файлы нелегального содержания!