На всех торрентах на трекере установлена скидка на скачивание в размере 100 процентов(а).
 Возможность скачивания торрента НЕ зависит от ограничений при низком ратио, низком аплоаде, требуемом ратио или требуемом аплоаде.


Начать новую тему Ответить на тему
Статистика раздачи
Размер: 1.37 ГБ | Добавлен: 15 окт 2014, 17:31 | Скачали: 0
Сидеров: 0  [0 байт/сек]    Личеров: 1  [0 байт/сек]
Пред. тема | След. тема 

Автор
Сообщение

СообщениеДобавлено: 15 окт 2014, 17:31 

Год выпуска: 2014
Производство: Дания, Великобритания, ЮАР / Spier Films, F.I.L.M.S., TrustNordisk
Жанр: Вестерн, Драма

Режиссер: Кристиан Левринг
Продюсер: Сиссе Граум Олсен, Майк Оре, Карен Бентзон
Актеры: Мадс Миккельсен, Ева Грин, Джеффри Дин Морган, Эрик Кантона, Микаэл Персбрандт, Дуглас Хеншэлл, Майкл Рэймонд-Джеймс, Джонатан Прайс, Александр Арнольд, Нанна Оланд Фабрициус

Описание фильма:
Джон, фермер, чья семья убита, дает клятву отомстить, выслеживает и наказывает убийцу. Его действия запускают цепочку насилия: лидер местной банды со своими напарниками решает расправиться с Джоном и его деревней.

Перевод: Одноголосый закадровый, любительский
Вид субтитров: Вшитые не отключаемые
Язык субтитров: Исландские



Дата мировой премьеры: 17 мая 2014
Дата российской премьеры: 13 ноября 2014, «Cinema Prestige»

Продолжительность: 01:28:19
Качество видео: DVDRip

Видеокодек: Xvid
Битрейт видео: ~1825 kb/s
Размер кадра: 720x272
Аудиокодек: AC3 5.1
Битрейт аудио: 384 kb/s
Сэмпл: Скачать
Код:
Код:
Общее
Полное имя                               : The.Salvation.2014.L1.DVRip.1400MB.nnm-club.avi
Формат                                   : AVI
Формат/Информация                        : Audio Video Interleave
Размер файла                             : 1,37 Гбайт
Продолжительность                        : 1 ч. 28 м.
Общий поток                              : 2218 Кбит/сек
Программа кодирования                    : VirtualDubMod 1.5.10.2 (build 2540/release)
Библиотека кодирования                   : VirtualDubMod build 2540/release

Видео
Идентификатор                            : 0
Формат                                   : MPEG-4 Visual
Профиль формата                          : Advanced Simple@L5
Параметр BVOP формата                    : 2
Параметр QPel формата                    : Нет
Параметр GMC формата                     : Без точки перехода
Параметр матрицы формата                 : Default (MPEG)
Идентификатор кодека                     : XVID
Идентификатор кодека/Подсказка           : XviD
Продолжительность                        : 1 ч. 28 м.
Битрейт                                  : 1825 Кбит/сек
Ширина                                   : 720 пикселей
Высота                                   : 272 пикселя
Соотношение сторон                       : 2,647
Частота кадров                           : 25,000 кадров/сек
Цветовое пространство                    : YUV
Субдискретизация насыщенности            : 4:2:0
Битовая глубина                          : 8 бит
Тип развёртки                            : Прогрессивная
Метод сжатия                             : С потерями
Бит/(Пиксели*Кадры)                      : 0.373
Размер потока                            : 1,13 Гбайт (82%)
Библиотека кодирования                   : XviD 65

Аудио
Идентификатор                            : 1
Формат                                   : AC-3
Формат/Информация                        : Audio Coding 3
Расширение режима                        : CM (complete main)
Параметр Endianness формата              : Big
Идентификатор кодека                     : 2000
Продолжительность                        : 1 ч. 28 м.
Вид битрейта                             : Постоянный
Битрейт                                  : 384 Кбит/сек
Каналы                                   : 2 канала
Расположение каналов                     : Front: L R
Частота                                  : 48,0 КГц
Битовая глубина                          : 16 бит
Метод сжатия                             : С потерями
Размер потока                            : 243 Мбайт (17%)
Выравнивание                             : Разделение по промежуткам
Продолжительность промежутка             : 40  мс. (1,00 видеокадр)
Время предзагрузки промежутка            : 500  мс.
Скриншоты:

загрузка...
Правила, инструкции, FAQ!!!
Торрент  Добавлен [15 окт 2014, 17:31] Зарегистрируйтесь чтобы скачивать торрент

Статус
Проверен 
 
Размер  1.37 ГБ
Приватный: Нет (DHT включён)
.torrent скачан  0
Как залить торрент? | Как скачать Torrent? | Как смотреть и слушать онлайн?  


     Отправить личное сообщение
   
Страница 1 из 1
Показать сообщения за:  Поле сортировки  
Начать новую тему Ответить на тему

   Похожие торренты   Автор   Ответы   Просмотры   Последнее сообщение 
В этой теме нет новых непрочитанных сообщений. Скачать торрент Проверен Спасение / The Salvation (2014) BDRip 1080p | L1

в форуме 720p | 1080p, Размер: 8.48 ГБ, Здоровье: 100%

Anonymous

0
119|14

49
1229

28 ноя 2014, 16:17

Anonymous Перейти к последнему сообщению

В этой теме нет новых непрочитанных сообщений. Скачать торрент Проверен Спасение / The Salvation (2014) BDRip 720p | L1

в форуме 720p | 1080p, Размер: 4.71 ГБ, Здоровье: 100%

Гость

0
128|13

37
1764

28 ноя 2014, 16:12

Гость Перейти к последнему сообщению

В этой теме нет новых непрочитанных сообщений. Скачать торрент Проверен Спасение / The Salvation (2014) HDRip [576p] iPad

в форуме Фильмы для iPod, iPhone, iPad, Размер: 1.68 ГБ, Здоровье: 100%

Гость

0
22|1

37
0

12 дек 2014, 22:55

Гость Перейти к последнему сообщению

В этой теме нет новых непрочитанных сообщений. Скачать торрент Проверен Ложь во спасение / The Good Lie (2014) HDRip | L 1

в форуме Драмы, Мелодрамы, Размер: 1.31 ГБ, Здоровье: 44%

Гость

0
36|81

50
55

29 дек 2014, 17:33

Гость Перейти к последнему сообщению

В этой теме нет новых непрочитанных сообщений. Скачать торрент Проверен (acoustic, indie-chanson, rock) Гужевая Повозка - Спасение от пустоты - 2014, MP3, 320 kbps

в форуме Русский Рок, Размер: 72.44 МБ, Здоровье: 100%

Anonymous

0
2|2

6
0

23 авг 2016, 10:47

Anonymous Перейти к последнему сообщению



Сейчас этот форум просматривают: нет зарегистрированных пользователей и гости: 4


Вы не можете начинать темы
Вы не можете отвечать на сообщения
Вы не можете редактировать свои сообщения
Вы не можете удалять свои сообщения
Вы не можете добавлять вложения

Перейти:  

!ВНИМАНИЕ!
 Ресурс не предоставляет электронные версии произведений, а занимается лишь коллекционированием и каталогизацией ссылок, присылаемых и публикуемых на форуме нашими читателями. Если вы являетесь правообладателем какого-либо представленного материала и не желаете чтобы ссылка на него находилась в нашем каталоге, свяжитесь с нами и мы незамедлительно удалим её. Файлы для обмена на трекере предоставлены пользователями сайта, и администрация не несёт ответственности за их содержание. Просьба не заливать файлы, защищенные авторскими правами, а также файлы нелегального содержания!