На всех торрентах на трекере установлена скидка на скачивание в размере 100 процентов(а).
 Возможность скачивания торрента НЕ зависит от ограничений при низком ратио, низком аплоаде, требуемом ратио или требуемом аплоаде.


Начать новую тему Ответить на тему
Статистика раздачи
Размер: 1.37 ГБ | Добавлен: 21 сен 2014, 21:40 | Скачали: 2
Сидеров: 0  [0 байт/сек]    Личеров: 0  [0 байт/сек]
Пред. тема | След. тема 

Автор
Сообщение

СообщениеДобавлено: 21 сен 2014, 21:40 

Год выпуска: 2014
Производство: США, Aldamisa Entertainment, Demarest Films, Miramax Films, Quick Draw Productions, Solipsist Film, Troublemaker Studios
Жанр: Боевик, Криминал, Триллер

Описание фильма:
В темных переулках Города Грехов Дуайт планирует жестоко отомстить женщине по имени Ава Лорд, которая его предала, в то время как Нэнси пытается смириться со смертью детектива Хартигана.

Режиссер: Фрэнк Миллер, Роберт Родригес
Продюсер: Сергей Беспалов, Аарон Кауфман, Стивен Л’Орё
Актеры: Ева Грин, Микки Рурк, Джош Бролин, Джессика Альба, Джозеф Гордон-Левитт, Розарио Доусон, Пауэрс Бут, Деннис Хейсбёрт, Джейми Чунг, Брюс Уиллис

Перевод: Дублированный (Чистый звук)
Субтитры: отсутствуют



Дата мировой премьеры: 19.08.2014
Дата российской премьеры: 21.08.2014
Дата выхода DVD релиза: 30 сентября 2014

Продолжительность: 01:34:12
Качество видео: WEB-DLRip

Видеокодек: Xvid
Битрейт видео: ~1875 kb/s
Размер кадра: 720x384
Аудиокодек: AC3 2.0
Битрейт аудио: 192 Кбит/с
Сэмпл: Скачать
General
Complete name : Gorod.grehov.2.2014.WEBRip.1400Mb.avi
Format : AVI
Format/Info : Audio Video Interleave
File size : 1.37 GiB
Duration : 1h 34mn
Overall bit rate : 2 078 Kbps
Writing application : VirtualDubMod 1.5.10.2 (build 2540/release)
Writing library : VirtualDubMod build 2540/release

Video
ID : 0
Format : MPEG-4 Visual
Format profile : Advanced Simple@L5
Format settings, BVOP : Yes
Format settings, QPel : No
Format settings, GMC : No warppoints
Format settings, Matrix : Default (MPEG)
Codec ID : XVID
Codec ID/Hint : XviD
Duration : 1h 34mn
Bit rate : 1 876 Kbps
Width : 720 pixels
Height : 384 pixels
Display aspect ratio : 1.85:1
Frame rate : 25.000 fps
Color space : YUV
Chroma subsampling : 4:2:0
Bit depth : 8 bits
Scan type : Progressive
Compression mode : Lossy
Bits/(Pixel*Frame) : 0.271
Stream size : 1.23 GiB (90%)
Writing library : XviD 1.2.1 (UTC 2008-12-04)

Audio
ID : 1
Format : AC-3
Format/Info : Audio Coding 3
Mode extension : CM (complete main)
Format settings, Endianness : Big
Codec ID : 2000
Duration : 1h 34mn
Bit rate mode : Constant
Bit rate : 192 Kbps
Channel(s) : 2 channels
Channel positions : Front: L R
Sampling rate : 48.0 KHz
Bit depth : 16 bits
Compression mode : Lossy
Stream size : 129 MiB (9%)
Alignment : Split accross interleaves
Interleave, duration : 40 ms (1.00 video frame)
Interleave, preload duration : 500 ms
Скриншоты:



загрузка...
Правила, инструкции, FAQ!!!
Торрент  Добавлен [21 сен 2014, 21:40] Зарегистрируйтесь чтобы скачивать торрент

Статус
Проверен 
 
Размер  1.37 ГБ
Приватный: Нет (DHT включён)
.torrent скачан  2
Как залить торрент? | Как скачать Torrent? | Как смотреть и слушать онлайн?  


     Отправить личное сообщение
   
Страница 1 из 1
Показать сообщения за:  Поле сортировки  
Начать новую тему Ответить на тему

   Похожие торренты   Автор   Ответы   Просмотры   Последнее сообщение 
В этой теме нет новых непрочитанных сообщений. Скачать торрент Проверен Город грехов 2: Женщина, ради которой стоит убивать / Sin City: A Dame to Kill For (2014) WEBRip [H.264/720p-LQ] [Line]

в форуме 720p | 1080p, Размер: 2.1 ГБ, Здоровье: 100%

Anonymous

0
3053|61

169
0

21 сен 2014, 21:35

Anonymous Перейти к последнему сообщению

В этой теме нет новых непрочитанных сообщений. Скачать торрент Проверен Город грехов 2: Женщина, ради которой стоит убивать / Sin City: A Dame to Kill For (2014) BDRip 720p | Лицензия

в форуме 720p | 1080p, Размер: 3.33 ГБ, Здоровье: 100%

Anonymous

0
478|80

127
2820

07 ноя 2014, 20:51

Anonymous Перейти к последнему сообщению

В этой теме нет новых непрочитанных сообщений. Скачать торрент Проверен Город грехов 2: Женщина, ради которой стоит убивать / Sin City: A Dame to Kill For (2014) BDRip 1080p от Ash61 | 3D-Video | halfOU

в форуме HD-Video в 3D, Размер: 7.52 ГБ, Здоровье: 100%

Anonymous

0
177|21

281
2432

08 ноя 2014, 18:36

Anonymous Перейти к последнему сообщению

В этой теме нет новых непрочитанных сообщений. Скачать торрент Город грехов / Sin City (Фрэнк Миллер / Frank Miller, Роберт Родригес / Robert Rodriguez, Квентин Тарантино / Quentin Tarantino) [2005 г., Боевик, Триллер, Криминал, HDRip]

в форуме Боевики, Размер: 1.47 ГБ, Здоровье: 100%

Anonymous

0
56|19

151
0

26 апр 2014, 20:59

Anonymous Перейти к последнему сообщению

В этой теме нет новых непрочитанных сообщений. Скачать торрент Город грехов / Sin City (Фрэнк Миллер / Frank Miller, Роберт Родригес / Robert Rodriguez, Квентин Тарантино / Quentin Tarantino) [2005 г., боевик, триллер, криминал, детектив, BDRip] Dub

в форуме Боевики, Размер: 2.18 ГБ, Здоровье: 100%

Anonymous

0
56|19

198
0

25 апр 2014, 08:54

Anonymous Перейти к последнему сообщению



Сейчас этот форум просматривают: нет зарегистрированных пользователей и гости: 2


Вы не можете начинать темы
Вы не можете отвечать на сообщения
Вы не можете редактировать свои сообщения
Вы не можете удалять свои сообщения
Вы не можете добавлять вложения

Перейти:  

!ВНИМАНИЕ!
 Ресурс не предоставляет электронные версии произведений, а занимается лишь коллекционированием и каталогизацией ссылок, присылаемых и публикуемых на форуме нашими читателями. Если вы являетесь правообладателем какого-либо представленного материала и не желаете чтобы ссылка на него находилась в нашем каталоге, свяжитесь с нами и мы незамедлительно удалим её. Файлы для обмена на трекере предоставлены пользователями сайта, и администрация не несёт ответственности за их содержание. Просьба не заливать файлы, защищенные авторскими правами, а также файлы нелегального содержания!