На всех торрентах на трекере установлена скидка на скачивание в размере 100 процентов(а).
 Возможность скачивания торрента НЕ зависит от ограничений при низком ратио, низком аплоаде, требуемом ратио или требуемом аплоаде.


Начать новую тему Ответить на тему
Статистика раздачи
Размер: 2.71 ГБ | Добавлен: 10 сен 2014, 16:15 | Скачали: 1605
Сидеров: 91  [0 байт/сек]    Личеров: 6  [0 байт/сек]
Пред. тема | След. тема 

Автор
Сообщение

СообщениеДобавлено: 10 сен 2014, 16:15 

Название: Годзилла
Оригинальное название: Godzilla
Год выпуска: 2014
Жанр: Фантастика, боевик, приключения
Режиссер: Гарет Эдвардс

В ролях: Аарон Тейлор-Джонсон, Кен Ватанабе, Элизабет Олсен, Жюльетт Бинош, Салли Хокинс, Дэвид Стрэтэйрн, Брайан Крэнстон, С.Дж. Адамс, Карсон Болд, Ричард Т. Джонс

Описание: Человечество случайно разбудило гигантское древнее существо, что повлекло за собой ужасающие последствия…



Выпущено: США, Япония / Disruption Entertainment, Legendary Pictures, Toho Company, Warner Bros. Pictures
Продолжительность: 02:03:07
Перевод: Дублированный


Качество: BDRip (AVC)
Видео: MPEG-4 AVC, 1800 Кбит/с, 1024x426, 23.976 кадр/с
Аудио #1: Русский (AC3, 6 ch, 448 Кбит/с) / Дублированный (Лицензия)
Аудио #2: Украинский (AC3, 6 ch, 448 Кбит/с) / Дублированный (Лицензия)
Аудио #3: Английский (AC3, 6 ch, 448 Кбит/с)
Субтитры: Русские (форсированные, полные), украинские (форсированные, полные), английские (Full, SDH, Colored)

Семпл


x264 [info]: frame I:1068  Avg QP:13.17  size: 56348
x264 [info]: frame P:40985 Avg QP:16.70  size: 19483
x264 [info]: frame B:135061 Avg QP:18.48  size:  5949
x264 [info]: consecutive B-frames:  2.2%  3.6% 14.3% 19.8% 18.1% 28.4%  5.5%  3.9%  1.7%  0.7%  0.5%  0.9%  0.2%  0.1%  0.2%
x264 [info]: mb I  I16..4: 13.4% 64.0% 22.6%
x264 [info]: mb P  I16..4:  0.8%  9.8%  1.7%  P16..4: 30.9% 38.5% 12.4%  0.0%  0.0%    skip: 5.9%
x264 [info]: mb B  I16..4:  0.1%  0.7%  0.1%  B16..8: 37.3% 22.0%  3.0%  direct: 4.5%  skip:32.3%  L0:42.0% L1:46.6% BI:11.4%
x264 [info]: 8x8 transform intra:77.6% inter:52.8%
x264 [info]: direct mvs  spatial:98.3% temporal:1.7%
x264 [info]: coded y,uvDC,uvAC intra: 91.5% 70.9% 49.6% inter: 22.6% 12.2% 5.7%
x264 [info]: i16 v,h,dc,p: 17% 10% 18% 55%
x264 [info]: i8 v,h,dc,ddl,ddr,vr,hd,vl,hu: 10%  9%  8%  9% 13% 13% 12% 12% 14%
x264 [info]: i4 v,h,dc,ddl,ddr,vr,hd,vl,hu: 12%  8%  5%  9% 15% 14% 13% 11% 13%
x264 [info]: i8c dc,h,v,p: 37% 32% 19% 12%
x264 [info]: Weighted P-Frames: Y:14.7% UV:6.3%
x264 [info]: ref P L0: 46.2%  8.7% 18.6%  6.8%  5.9%  3.8%  3.6%  2.5%  1.8%  1.6%  0.5%  0.1%
x264 [info]: ref B L0: 75.4% 12.0%  5.1%  2.6%  1.8%  1.2%  1.0%  0.6%  0.2%
x264 [info]: ref B L1: 93.2%  6.8%
x264 [info]: kb/s:1800.10
Общее
Уникальный идентификатор : 221907308247212857991565654828469356922 (0xA6F1CB00F1E30FD7AC55238D3A22897A)
Полное имя : D:Mои раздачиGodzilla.2014.BDRip.(AVC)-MediaClub.mkv
Формат : Matroska
Версия формата : Version 4 / Version 2
Размер файла : 2,71 Гбайт
Продолжительность : 2 ч. 3 м.
Общий поток : 3147 Кбит/сек
Название фильма : -=MediaClub-kaspr=-
Дата кодирования : UTC 2014-09-10 09:41:43
Программа кодирования : mkvmerge v6.9.1 ('Blue Panther') 64bit built on Apr 18 2014 18:23:38
Библиотека кодирования : libebml v1.3.0 + libmatroska v1.4.1

Видео
Идентификатор : 1
Формат : AVC
Формат/Информация : Advanced Video Codec
Профиль формата : High@L4.1
Параметр CABAC формата : Да
Параметр ReFrames формата : 10 кадров
Идентификатор кодека : V_MPEG4/ISO/AVC
Продолжительность : 2 ч. 3 м.
Битрейт : 1800 Кбит/сек
Ширина : 1024 пикселя
Высота : 426 пикселей
Соотношение сторон : 2,40:1
Режим частоты кадров : Постоянный
Частота кадров : 23,976 кадра/сек
Цветовое пространство : YUV
Субдискретизация насыщенности : 4:2:0
Битовая глубина : 8 бит
Тип развёртки : Прогрессивная
Бит/(Пиксели*Кадры) : 0.172
Размер потока : 1,50 Гбайт (55%)
Заголовок : -=MediaClub-kaspr=-
Библиотека кодирования : x264 core 142 r2431+42 c69a006 tMod [8-bit@4:2:0 X86_64]
Настройки программы : cabac=1 / ref=10 / deblock=1:-3:-3 / analyse=0x3:0x113 / me=umh / subme=11 / psy=1 / fade_compensate=0.00 / psy_rd=1.00:0.20 / mixed_ref=1 / me_range=32 / chroma_me=1 / trellis=2 / 8x8dct=1 / cqm=0 / deadzone=21,11 / fast_pskip=0 / chroma_qp_offset=-3 / threads=12 / lookahead_threads=3 / sliced_threads=0 / nr=0 / decimate=0 / interlaced=0 / bluray_compat=0 / constrained_intra=0 / fgo=0 / bframes=14 / b_pyramid=2 / b_adapt=2 / b_bias=0 / direct=3 / weightb=1 / open_gop=0 / weightp=2 / keyint=240 / keyint_min=23 / scenecut=40 / intra_refresh=0 / rc=2pass / mbtree=0 / bitrate=1800 / ratetol=1.0 / qcomp=0.60 / qpmin=0:0:0 / qpmax=69:69:69 / qpstep=4 / cplxblur=20.0 / qblur=0.5 / ip_ratio=1.40 / pb_ratio=1.30 / aq=4:0.80 / aq-sensitivity=10.00 / aq-factor=1.00:1.00:1.00 / aq2=0 / aq3=0
Default : Да
Forced : Нет

Аудио #1
Идентификатор : 2
Формат : AC-3
Формат/Информация : Audio Coding 3
Расширение режима : CM (complete main)
Параметр Endianness формата : Big
Идентификатор кодека : A_AC3
Продолжительность : 2 ч. 3 м.
Вид битрейта : Постоянный
Битрейт : 448 Кбит/сек
Каналы : 6 каналов
Расположение каналов : Front: L C R, Side: L R, LFE
Частота : 48,0 КГц
Битовая глубина : 16 бит
Метод сжатия : С потерями
Размер потока : 395 Мбайт (14%)
Заголовок : Dub
Язык : Russian
Default : Да
Forced : Нет

Аудио #2
Идентификатор : 3
Формат : AC-3
Формат/Информация : Audio Coding 3
Расширение режима : CM (complete main)
Параметр Endianness формата : Big
Идентификатор кодека : A_AC3
Продолжительность : 2 ч. 3 м.
Вид битрейта : Постоянный
Битрейт : 448 Кбит/сек
Каналы : 6 каналов
Расположение каналов : Front: L C R, Side: L R, LFE
Частота : 48,0 КГц
Битовая глубина : 16 бит
Метод сжатия : С потерями
Размер потока : 395 Мбайт (14%)
Язык : Ukrainian
Default : Нет
Forced : Нет

Аудио #3
Идентификатор : 4
Формат : AC-3
Формат/Информация : Audio Coding 3
Расширение режима : CM (complete main)
Параметр Endianness формата : Big
Идентификатор кодека : A_AC3
Продолжительность : 2 ч. 3 м.
Вид битрейта : Постоянный
Битрейт : 448 Кбит/сек
Каналы : 6 каналов
Расположение каналов : Front: L C R, Side: L R, LFE
Частота : 48,0 КГц
Битовая глубина : 16 бит
Метод сжатия : С потерями
Размер потока : 395 Мбайт (14%)
Язык : English
Default : Нет
Forced : Нет

Текст #1
Идентификатор : 5
Формат : UTF-8
Идентификатор кодека : S_TEXT/UTF8
Идентификатор кодека/Информация : UTF-8 Plain Text
Заголовок : Forced
Язык : Russian
Default : Да
Forced : Нет

Текст #2
Идентификатор : 6
Формат : UTF-8
Идентификатор кодека : S_TEXT/UTF8
Идентификатор кодека/Информация : UTF-8 Plain Text
Заголовок : Full
Язык : Russian
Default : Нет
Forced : Нет

Текст #3
Идентификатор : 7
Формат : UTF-8
Идентификатор кодека : S_TEXT/UTF8
Идентификатор кодека/Информация : UTF-8 Plain Text
Заголовок : Forced
Язык : Ukrainian
Default : Нет
Forced : Нет

Текст #4
Идентификатор : 8
Формат : UTF-8
Идентификатор кодека : S_TEXT/UTF8
Идентификатор кодека/Информация : UTF-8 Plain Text
Заголовок : Full
Язык : Ukrainian
Default : Нет
Forced : Нет

Текст #5
Идентификатор : 9
Формат : UTF-8
Идентификатор кодека : S_TEXT/UTF8
Идентификатор кодека/Информация : UTF-8 Plain Text
Заголовок : Full
Язык : English
Default : Нет
Forced : Нет

Текст #6
Идентификатор : 10
Формат : UTF-8
Идентификатор кодека : S_TEXT/UTF8
Идентификатор кодека/Информация : UTF-8 Plain Text
Заголовок : SDH
Язык : English
Default : Нет
Forced : Нет

Текст #7
Идентификатор : 11
Формат : UTF-8
Идентификатор кодека : S_TEXT/UTF8
Идентификатор кодека/Информация : UTF-8 Plain Text
Заголовок : Colored
Язык : English
Default : Нет
Forced : Нет

Меню
00:00:00.000 : en:Chapter 01
00:09:22.562 : en:Chapter 02
00:19:03.225 : en:Chapter 03
00:30:25.532 : en:Chapter 04
00:39:10.097 : en:Chapter 05
00:49:43.438 : en:Chapter 06
00:59:27.188 : en:Chapter 07
01:09:50.186 : en:Chapter 08
01:19:11.246 : en:Chapter 09
01:29:57.266 : en:Chapter 10
01:40:14.758 : en:Chapter 11
01:52:14.728 : en:Chapter 12
01:56:10.088 : en:Chapter 13


Релиз: |
загрузка...
Правила, инструкции, FAQ!!!
Торрент  Добавлен [10 сен 2014, 16:15] Зарегистрируйтесь чтобы скачивать торрент

Статус
Проверен 
 
Размер  2.71 ГБ
Приватный: Нет (DHT включён)
.torrent скачан  1605
Как залить торрент? | Как скачать Torrent? | Как смотреть и слушать онлайн?  


     Отправить личное сообщение
   
Страница 1 из 1
Показать сообщения за:  Поле сортировки  
Начать новую тему Ответить на тему

   Похожие торренты   Автор   Ответы   Просмотры   Последнее сообщение 
В этой теме нет новых непрочитанных сообщений. Годзилла / Godzilla (2014) BDRip 720p | Лицензия

в форуме Новинки кино, Размер: 5.36 ГБ, Здоровье: 100%

Anonymous

0
246|17

258
1920

10 сен 2014, 16:12

Anonymous Перейти к последнему сообщению

В этой теме нет новых непрочитанных сообщений. Годзилла / Godzilla (2014) BDRip 1080p | Чистый звук

в форуме Новинки кино, Размер: 5.69 ГБ, Здоровье: 0%

Anonymous

0
0|0

272
1

26 авг 2014, 19:57

Anonymous Перейти к последнему сообщению

В этой теме нет новых непрочитанных сообщений. Скачать торрент Проверен Годзилла / Godzilla (2014) BDRip 1080p от Ash61 | 3D-Video | halfOU | Чистый звук | L1

в форуме HD-Video в 3D, Размер: 6.57 ГБ, Здоровье: 0%

Anonymous

0
0|0

173
714

26 авг 2014, 22:28

Anonymous Перейти к последнему сообщению

В этой теме нет новых непрочитанных сообщений. Годзилла / Godzilla (2014) HDRip | Чистый звук

в форуме Новинки кино, Размер: 797.13 МБ, Здоровье: 0%

Anonymous

0
0|0

229
0

25 авг 2014, 01:51

Anonymous Перейти к последнему сообщению

В этой теме нет новых непрочитанных сообщений. Годзилла / Godzilla (2014) HDRip | Чистый звук

в форуме Новинки кино, Размер: 1.46 ГБ, Здоровье: 100%

Anonymous

0
700|8

266
12

23 авг 2014, 21:32

Anonymous Перейти к последнему сообщению



Сейчас этот форум просматривают: нет зарегистрированных пользователей и гости: 1


Вы не можете начинать темы
Вы не можете отвечать на сообщения
Вы не можете редактировать свои сообщения
Вы не можете удалять свои сообщения
Вы не можете добавлять вложения

Перейти:  

!ВНИМАНИЕ!
 Ресурс не предоставляет электронные версии произведений, а занимается лишь коллекционированием и каталогизацией ссылок, присылаемых и публикуемых на форуме нашими читателями. Если вы являетесь правообладателем какого-либо представленного материала и не желаете чтобы ссылка на него находилась в нашем каталоге, свяжитесь с нами и мы незамедлительно удалим её. Файлы для обмена на трекере предоставлены пользователями сайта, и администрация не несёт ответственности за их содержание. Просьба не заливать файлы, защищенные авторскими правами, а также файлы нелегального содержания!