На всех торрентах на трекере установлена скидка на скачивание в размере 100 процентов(а).
 Возможность скачивания торрента НЕ зависит от ограничений при низком ратио, низком аплоаде, требуемом ратио или требуемом аплоаде.


Начать новую тему Ответить на тему
Статистика раздачи
Размер: 1.37 ГБ | Добавлен: 10 сен 2014, 22:52 | Скачали: 13
Сидеров: 525  [0 байт/сек]    Личеров: 9  [0 байт/сек]
Пред. тема | След. тема 

Автор
Сообщение

СообщениеДобавлено: 09 сен 2014, 23:19 

Название: Грань будущего
Оригинальное название: Edge of Tomorrow
Год выхода: 2014
Жанр: фантастика, боевик
Режиссер: Даг Лайман

В ролях: Том Круз, Эмили Блант, Брендан Глисон, Билл Пэкстон, Джонас Армстронг, Тони Вэй, Кик Гарри, Франц Драмех, Драгомир Мрсич, Шарлотта Райли

О фильме: История разворачивается в недалеком будущем, когда похожая на рой раса инопланетян, названных мимиками, совершает безжалостное нападение на Землю, стерев в пыль крупные города и уничтожив миллионы жизней. Армии Земли объединят силы, чтобы вступить в последний бой с полчищами инопланетян, зная, что второго шанса у них не будет.

Подполковник Билл Кейдж — ни разу не был на поле битвы, пока его не бросили в самую гущу боя неподготовленного и плохо снаряженного, фактически обрекая на смерть. Через считанные минуты Кейджа убивают, но он захватывает с собой и жизнь пришельца. И случается невозможное — он просыпается живым в начале того же адского дня, и вынужден сражаться и умирать… снова и снова. Прямой физический контакт с пришельцем замкнул временную петлю, и теперь Кейдж вновь и вновь идет в тот же бой.

Но с каждым возвращением Кейдж становится более жестоким и умным в битве с мимиками, сражаясь бок о бок с бойцом спецназа Ритой Вратаски, уничтожившей больше мимиков, чем кто бы то ни было еще на Земле. Рита и Кейдж раз за разом дают бой пришельцам, и каждое повторяющееся сражение приближает их к разгадке того, как убить инопланетных захватчиков и спасти планету.




Выпущено: США, Австралия / Warner Bros., Village Roadshow Pictures, 3 Arts Entertainment
Продолжительность: 01:53:27
Озвучивание: Дублированное [iTunes]


Формат: AVI (XviD)
Качество: WEB-DLRip [Рип с WEB-DLRip 720p]
Видео: 1332 kb/s, 720x304
Аудио: AC3, 384 kb/s (6 ch)





Format : AVI
Format/Info : Audio Video Interleave
File size : 1.46 GiB
Duration : 1h 53mn
Overall bit rate : 1 840 Kbps
Writing application : VirtualDubMod 1.5.10.3 | http://www.virtualdub-fr.org || (build 2550/release)
Writing library : VirtualDubMod build 2550/release

Video
ID : 0
Format : MPEG-4 Visual
Format profile : Advanced Simple@L5
Format settings, BVOP : 1
Format settings, QPel : No
Format settings, GMC : No warppoints
Format settings, Matrix : Custom
Codec ID : XVID
Codec ID/Hint : XviD
Duration : 1h 53mn
Bit rate : 1 702 Kbps
Width : 720 pixels
Height : 304 pixels
Display aspect ratio : 2.35:1
Frame rate : 23.976 fps
Color space : YUV
Chroma subsampling : 4:2:0
Bit depth : 8 bits
Scan type : Progressive
Compression mode : Lossy
Bits/(Pixel*Frame) : 0.324
Stream size : 1.35 GiB (93%)
Writing library : XviD 73

Audio
ID : 1
Format : AC-3
Format/Info : Audio Coding 3
Mode extension : CM (complete main)
Format settings, Endianness : Big
Codec ID : 2000
Duration : 1h 53mn
Bit rate mode : Constant
Bit rate : 128 Kbps
Channel(s) : 2 channels
Channel positions : Front: L R
Sampling rate : 48.0 KHz
Bit depth : 16 bits
Compression mode : Lossy
Stream size : 104 MiB (7%)
Alignment : Split accross interleaves
Interleave, duration : 42 ms (1.00 video frame)
Interleave, preload duration : 500 ms
загрузка...
Правила, инструкции, FAQ!!!
Торрент  Добавлен [10 сен 2014, 22:52] Зарегистрируйтесь чтобы скачивать торрент

Статус
Проверен 
 
Размер  1.37 ГБ
Приватный: Нет (DHT включён)
.torrent скачан  13
Как залить торрент? | Как скачать Torrent? | Как смотреть и слушать онлайн?  


     Отправить личное сообщение
   

СообщениеДобавлено: 10 сен 2014, 22:53 

Не в сети
Администратор
Администратор
Аватара пользователя

Стаж: 4 года 1 месяц 23 дня
Раздал: 260.3 ГБ
Скачал: 158.38 ГБ
Ратио: 1.643
Торренты: 0
Чистый звук заменен на iTunes

_________________
Не скачивается раздача? напишите об этом в теме!


Профиль     Отправить личное сообщение
   
Страница 1 из 1
Показать сообщения за:  Поле сортировки  
Начать новую тему Ответить на тему

   Похожие торренты   Автор   Ответы   Просмотры   Последнее сообщение 
В этой теме нет новых непрочитанных сообщений. Грань будущего / Edge of Tomorrow (2014) WEB-DL 720p | iTunes

в форуме Новинки кино, Размер: 4.01 ГБ, Здоровье: 100%

Anonymous

1
3785|139

347
10

10 сен 2014, 22:46

Bionik Перейти к последнему сообщению

В этой теме нет новых непрочитанных сообщений. Грань будущего / Edge of Tomorrow (2014) WEB-DLRip | Чистый звук

в форуме Новинки кино, Размер: 793.74 МБ, Здоровье: 0%

Anonymous

0
0|0

268
0

09 сен 2014, 23:33

Anonymous Перейти к последнему сообщению

В этой теме нет новых непрочитанных сообщений. Скачать торрент Проверен Грань будущего / Edge of Tomorrow (2014) BDRip 1080p от Ash61 | 3D-Video | halfOU | D, A | iTunes

в форуме HD-Video в 3D, Размер: 10.3 ГБ, Здоровье: ???%

Anonymous

0
0|7

908
1616

21 сен 2014, 11:26

Anonymous Перейти к последнему сообщению

В этой теме нет новых непрочитанных сообщений. Грань будущего / Edge of Tomorrow (2014) BDRip 1080p | D, A

в форуме Новинки кино, Размер: 9.62 ГБ, Здоровье: 100%

Anonymous

0
132|2

385
10

19 сен 2014, 19:09

Anonymous Перейти к последнему сообщению

В этой теме нет новых непрочитанных сообщений. Скачать торрент Люди будущего (The Tomorrow People) / (Сезон 1, серии 01-19 из 22) BaibaKo (2013) [MP4|720x400] <WEB-DLRip [H.264]>

в форуме Видео для смартфонов и КПК, Размер: 10.82 ГБ, Здоровье: 0%

Anonymous

0
0|0

117
0

21 апр 2014, 22:26

Anonymous Перейти к последнему сообщению



Сейчас этот форум просматривают: нет зарегистрированных пользователей и гости: 3


Вы не можете начинать темы
Вы не можете отвечать на сообщения
Вы не можете редактировать свои сообщения
Вы не можете удалять свои сообщения
Вы не можете добавлять вложения

Перейти:  

!ВНИМАНИЕ!
 Ресурс не предоставляет электронные версии произведений, а занимается лишь коллекционированием и каталогизацией ссылок, присылаемых и публикуемых на форуме нашими читателями. Если вы являетесь правообладателем какого-либо представленного материала и не желаете чтобы ссылка на него находилась в нашем каталоге, свяжитесь с нами и мы незамедлительно удалим её. Файлы для обмена на трекере предоставлены пользователями сайта, и администрация не несёт ответственности за их содержание. Просьба не заливать файлы, защищенные авторскими правами, а также файлы нелегального содержания!