На всех торрентах на трекере установлена скидка на скачивание в размере 100 процентов(а).
 Возможность скачивания торрента НЕ зависит от ограничений при низком ратио, низком аплоаде, требуемом ратио или требуемом аплоаде.


Начать новую тему Ответить на тему
Статистика раздачи
Размер: 3.19 ГБ | Добавлен: 07 сен 2014, 11:54 | Скачали: 11
Сидеров: 305  [0 байт/сек]    Личеров: 5  [0 байт/сек]
Пред. тема | След. тема 

Автор
Сообщение

СообщениеДобавлено: 07 сен 2014, 11:54 

Название: Малефисента
Оригинальное название: Maleficent
Год выхода: 2014
Жанр: фэнтези, боевик, мелодрама, приключения, семейный
Режиссер: Роберт Стромберг

В ролях: Анджелина Джоли, Эль Фаннинг, Шарлто Копли, Сэм Райли, Имелда Стонтон, Джуно Темпл, Лесли Мэнвилл, Брентон Туэйтс, Кеннет Крэнэм, Изобель Моллой

О фильме: Юная волшебница Малефисента вела уединенную жизнь в зачарованном лесу, окруженная сказочными существами, но однажды все изменилось… В её мир вторглись люди, которые принесли с собой разрушение и хаос, и Малефисенте пришлось встать на защиту своих подданных, призвав на помощь могущественные тёмные силы. В пылу борьбы Малефисента наложила страшное заклятие на новорожденную дочь короля, прекрасную Аврору. Но, наблюдая за тем, как растет маленькая принцесса, Малефисента начинает сомневаться в правильности своего поступка — ведь, возможно, именно Аврора может вдохнуть новую жизнь в волшебное лесное царство.



Выпущено: США
Продолжительность: 01:37:50
Озвучивание: Дублированное [Чистый звук] Официальный


Формат: MKV (H.264)
Качество: WEB-DL 720p
Видео: 3804 Kb/s, 1280x532
Аудио: Russian: AC3, 384 Kb/s (2 ch) / English: AC3, 384 kb/s (6 ch)





Format : Matroska
Format version : Version 4 / Version 2
File size : 3.19 GiB
Duration : 1h 37mn
Overall bit rate : 4 665 Kbps
Encoded date : UTC 2014-09-05 01:23:44
Writing application : mkvmerge v6.1.0 ('Old Devil') built on Mar 4 2013 09:10:42
Writing library : libebml v1.3.0 + libmatroska v1.4.0

Video
ID : 1
Format : AVC
Format/Info : Advanced Video Codec
Format profile : Main@L3.1
Format settings, CABAC : No
Format settings, ReFrames : 2 frames
Codec ID : V_MPEG4/ISO/AVC
Duration : 1h 37mn
Bit rate : 3 804 Kbps
Width : 1 280 pixels
Height : 532 pixels
Display aspect ratio : 2.40:1
Frame rate : 23.976 fps
Color space : YUV
Chroma subsampling : 4:2:0
Bit depth : 8 bits
Scan type : Progressive
Bits/(Pixel*Frame) : 0.233
Stream size : 2.60 GiB (82%)
Language : English
Default : Yes
Forced : No
Color primaries : BT.709-5, BT.1361, IEC 61966-2-4, SMPTE RP177
Transfer characteristics : BT.709-5, BT.1361
Matrix coefficients : BT.709-5, BT.1361, IEC 61966-2-4 709, SMPTE RP177

Audio #1
ID : 2
Format : AC-3
Format/Info : Audio Coding 3
Mode extension : CM (complete main)
Format settings, Endianness : Big
Codec ID : A_AC3
Duration : 1h 37mn
Bit rate mode : Constant
Bit rate : 384 Kbps
Channel(s) : 2 channels
Channel positions : Front: L R
Sampling rate : 48.0 KHz
Bit depth : 16 bits
Compression mode : Lossy
Stream size : 269 MiB (8%)
Language : Russian
Default : Yes
Forced : No

Audio #2
ID : 3
Format : AC-3
Format/Info : Audio Coding 3
Mode extension : CM (complete main)
Format settings, Endianness : Big
Codec ID : A_AC3
Duration : 1h 37mn
Bit rate mode : Constant
Bit rate : 384 Kbps
Channel(s) : 6 channels
Channel positions : Front: L C R, Side: L R, LFE
Sampling rate : 48.0 KHz
Bit depth : 16 bits
Compression mode : Lossy
Stream size : 269 MiB (8%)
Language : English
Default : No
Forced : No

Menu
00:00:00.000 : en:1
00:03:01.000 : en:2
00:08:11.000 : en:3
00:14:01.000 : en:4
00:19:11.000 : en:5
00:25:58.000 : en:6
00:33:10.000 : en:7
00:38:32.000 : en:8
00:43:22.000 : en:9
00:46:57.000 : en:10
00:51:13.000 : en:11
00:54:19.000 : en:12
00:58:38.000 : en:13
01:01:59.000 : en:14
01:05:11.000 : en:15
01:09:57.000 : en:16
01:15:41.000 : en:17
01:17:44.000 : en:18
01:25:44.000 : en:19
01:28:39.000 : en:20
загрузка...
Правила, инструкции, FAQ!!!
Торрент  Добавлен [07 сен 2014, 11:54] Зарегистрируйтесь чтобы скачивать торрент

Статус
Проверен 
 
Размер  3.19 ГБ
Приватный: Нет (DHT включён)
.torrent скачан  11
Как залить торрент? | Как скачать Torrent? | Как смотреть и слушать онлайн?  


     Отправить личное сообщение
   
Страница 1 из 1
Показать сообщения за:  Поле сортировки  
Начать новую тему Ответить на тему

   Похожие торренты   Автор   Ответы   Просмотры   Последнее сообщение 
В этой теме нет новых непрочитанных сообщений. Малефисента / Maleficent (2014) DVDRip | Чистый звук

в форуме Новинки кино, Размер: 1.46 ГБ, Здоровье: 100%

Anonymous

0
2212|16

260
14

20 авг 2014, 06:20

Anonymous Перейти к последнему сообщению

В этой теме нет новых непрочитанных сообщений. Малефисента / Maleficent (2014) WEB-DLRip | Чистый звук

в форуме Новинки кино, Размер: 742.07 МБ, Здоровье: 0%

Anonymous

0
0|0

358
0

07 сен 2014, 11:52

Anonymous Перейти к последнему сообщению

В этой теме нет новых непрочитанных сообщений. Малефисента / Maleficent (2014) DVDRip | Звук с TS

в форуме Новинки кино, Размер: 1.36 ГБ, Здоровье: 100%

Anonymous

0
70|1

153
11

17 авг 2014, 07:48

Anonymous Перейти к последнему сообщению

В этой теме нет новых непрочитанных сообщений. Скачать торрент Проверен Малефисента / Maleficent (2014) BDRip 1080p | 3D-Video

в форуме HD-Video в 3D, Размер: 8.47 ГБ, Здоровье: 23%

Anonymous

0
8|34

112
4

30 окт 2014, 10:34

Anonymous Перейти к последнему сообщению

В этой теме нет новых непрочитанных сообщений. Скачать торрент Проверен Рио 2 / Rio 2 (2014) BDRip 720p | Чистый звук

в форуме Зарубежные мультфильмы (HD Video), Размер: 4.64 ГБ, Здоровье: 0%

Anonymous

0
0|0

917
0

28 июн 2014, 17:39

Anonymous Перейти к последнему сообщению



Сейчас этот форум просматривают: нет зарегистрированных пользователей и гости: 1


Вы не можете начинать темы
Вы не можете отвечать на сообщения
Вы не можете редактировать свои сообщения
Вы не можете удалять свои сообщения
Вы не можете добавлять вложения

Перейти:  

!ВНИМАНИЕ!
 Ресурс не предоставляет электронные версии произведений, а занимается лишь коллекционированием и каталогизацией ссылок, присылаемых и публикуемых на форуме нашими читателями. Если вы являетесь правообладателем какого-либо представленного материала и не желаете чтобы ссылка на него находилась в нашем каталоге, свяжитесь с нами и мы незамедлительно удалим её. Файлы для обмена на трекере предоставлены пользователями сайта, и администрация не несёт ответственности за их содержание. Просьба не заливать файлы, защищенные авторскими правами, а также файлы нелегального содержания!