На всех торрентах на трекере установлена скидка на скачивание в размере 100 процентов(а).
 Возможность скачивания торрента НЕ зависит от ограничений при низком ратио, низком аплоаде, требуемом ратио или требуемом аплоаде.


Начать новую тему Ответить на тему
Статистика раздачи
Размер: 1.4 ГБ | Добавлен: 19 авг 2014, 11:39 | Скачали: 1
Сидеров: 246  [0 байт/сек]    Личеров: 2  [0 байт/сек]
Пред. тема | След. тема 

Автор
Сообщение

СообщениеДобавлено: 19 авг 2014, 11:39 

Год выпуска: 2014
Производство: США, Steamroller Productions
Жанр: Боевик

Режиссер: Киони Ваксман
Продюсер: Филлип Б. Голдфайн, Бинь Дань, Бенжамин Сакс
Актеры: Стивен Сигал, Виктор Уэбстер, Ци Ма, Рон Балики, Юлия Вердес, Элиас Феркин

Описание фильма:
Александр — идеальный солдат, но во время миссии в Ираке, на его руках умирает маленькая девочка, после чего он решил отойти от дел. Сэм Хуан — силовик, то ли связанный с Триадами, то ли воюющий против них, отправил, хорошо заплатив, безопасным путем свою маленькую сестру Миа в США. Мистер Чэн гнусным образом вешает на Сэма убийство, которое он совершил, а также похищает его сестру и передает бандитам. Александр решается помочь Сэму вернуть сестру и покончить с Триадой. Число жертв растет, Александр возвращается в то, что умеет делать лучше всего — это убивать.

Перевод: Любительский одноголосый [Lord32x]
Субтитры: Отсутствуют



Дата мировой премьеры: 19 августа 2014

Продолжительность: 01:43:04
Качество видео: DVDRip

Видеокодек: XviD
Битрейт видео: ~1548 Кбит/с
Размер кадра: 720x400
Аудиокодек: AC3, 6 ch
Битрейт аудио: 384 Кбит/с
Общее
Полное имя : C:\NNM\Хороший человек\Horoshij chelovek 2014 DVDRip.avi
Формат : AVI
Формат/Информация : Audio Video Interleave
Размер файла : 1,40 Гбайт
Продолжительность : 1 ч. 43 м.
Общий поток : 1941 Кбит/сек
Программа кодирования : VirtualDubMod 1.5.10.3
Библиотека кодирования : VirtualDubMod build 2550/release

Видео
Идентификатор : 0
Формат : MPEG-4 Visual
Профиль формата : Advanced Simple@L5
Параметр BVOP формата : 1
Параметр QPel формата : Нет
Параметр GMC формата : Без точки перехода
Параметр матрицы формата : Default (H.263)
Режим смешивания : Сжатый битовый поток
Идентификатор кодека : XVID
Идентификатор кодека/Подсказка : XviD
Продолжительность : 1 ч. 43 м.
Битрейт : 1548 Кбит/сек
Ширина : 720 пикселей
Высота : 400 пикселей
Соотношение сторон : 16:9
Частота кадров : 23,976 кадра/сек
Цветовое пространство : YUV
Субдискретизация насыщенности : 4:2:0
Битовая глубина : 8 бит
Тип развёртки : Прогрессивная
Метод сжатия : С потерями
Бит/(Пиксели*Кадры) : 0.224
Размер потока : 1,11 Гбайт (80%)
Библиотека кодирования : XviD 1.2.1 (UTC 2008-12-04)

Аудио
Идентификатор : 1
Формат : AC-3
Формат/Информация : Audio Coding 3
Расширение режима : CM (complete main)
Идентификатор кодека : 2000
Продолжительность : 1 ч. 43 м.
Вид битрейта : Постоянный
Битрейт : 384 Кбит/сек
Каналы : 6 каналов
Расположение каналов : Front: L C R, Side: L R, LFE
Частота : 48,0 КГц
Битовая глубина : 16 бит
Метод сжатия : С потерями
Размер потока : 283 Мбайт (20%)
Выравнивание : Разделение по промежуткам
Продолжительность промежутка : 42 мс. (1,00 видеокадр)
Время предзагрузки промежутка : 500 мс.
Скриншоты:


загрузка...
Правила, инструкции, FAQ!!!
Торрент  Добавлен [19 авг 2014, 11:39] Зарегистрируйтесь чтобы скачивать торрент

Статус
Проверен 
 
Размер  1.4 ГБ
Приватный: Нет (DHT включён)
.torrent скачан  1
Как залить торрент? | Как скачать Torrent? | Как смотреть и слушать онлайн?  


     Отправить личное сообщение
   
Страница 1 из 1
Показать сообщения за:  Поле сортировки  
Начать новую тему Ответить на тему

   Похожие торренты   Автор   Ответы   Просмотры   Последнее сообщение 
В этой теме нет новых непрочитанных сообщений. Скачать торрент Проверен Хороший человек / A Good Man (2014) WEB-DL 720p | L1

в форуме 720p | 1080p, Размер: 4.13 ГБ, Здоровье: 100%

Anonymous

0
159|22

44
955

25 авг 2014, 11:27

Anonymous Перейти к последнему сообщению

В этой теме нет новых непрочитанных сообщений. Скачать торрент Проверен [iPod] Хороший год / A Good Year (Ридли Скотт / Ridley Scott) [2006 г., Комедия, мелодрама, драма, DVDRip]

в форуме Фильмы для iPod, iPhone, iPad, Размер: 332.72 МБ, Здоровье: 100%

Anonymous

0
1|0

32
0

14 май 2015, 00:25

Anonymous Перейти к последнему сообщению

В этой теме нет новых непрочитанных сообщений. Скачать торрент Проверен Хороший год / A Good Year (2006) HDTVRip 1080p

в форуме 720p | 1080p, Размер: 5.59 ГБ, Здоровье: 100%

Anonymous

0
158|52

46
417

05 авг 2014, 23:07

Anonymous Перейти к последнему сообщению

В этой теме нет новых непрочитанных сообщений. Скачать торрент Проверен Хороший год / A Good Year (2006) HDTVRip от ExKinoRay

в форуме Драмы, Мелодрамы, Размер: 1.45 ГБ, Здоровье: 100%

Anonymous

0
287|10

31
935

05 авг 2014, 23:04

Anonymous Перейти к последнему сообщению

В этой теме нет новых непрочитанных сообщений. Скачать торрент Проверен Хороший год / A Good Year (2006) BDRip 720p

в форуме 720p | 1080p, Размер: 4.16 ГБ, Здоровье: 100%

Гость

0
359|28

55
695

11 янв 2015, 16:48

Гость Перейти к последнему сообщению



Сейчас этот форум просматривают: нет зарегистрированных пользователей и гости: 5


Вы не можете начинать темы
Вы не можете отвечать на сообщения
Вы не можете редактировать свои сообщения
Вы не можете удалять свои сообщения
Вы не можете добавлять вложения

Перейти:  

!ВНИМАНИЕ!
 Ресурс не предоставляет электронные версии произведений, а занимается лишь коллекционированием и каталогизацией ссылок, присылаемых и публикуемых на форуме нашими читателями. Если вы являетесь правообладателем какого-либо представленного материала и не желаете чтобы ссылка на него находилась в нашем каталоге, свяжитесь с нами и мы незамедлительно удалим её. Файлы для обмена на трекере предоставлены пользователями сайта, и администрация не несёт ответственности за их содержание. Просьба не заливать файлы, защищенные авторскими правами, а также файлы нелегального содержания!