На всех торрентах на трекере установлена скидка на скачивание в размере 100 процентов(а).
 Возможность скачивания торрента НЕ зависит от ограничений при низком ратио, низком аплоаде, требуемом ратио или требуемом аплоаде.


Начать новую тему Ответить на тему
Статистика раздачи
Размер: 1.36 ГБ | Добавлен: 18 авг 2014, 19:56 | Скачали: 0
Сидеров: 0  [0 байт/сек]    Личеров: 0  [0 байт/сек]
Пред. тема | След. тема 

Автор
Сообщение

СообщениеДобавлено: 18 авг 2014, 19:56 

Год выпуска: 2014
Производство: США, Automatik Entertainment, Low Spark Films
Жанр: Фантастика, Триллер

Режиссер: Уильям Юбэнк
Продюсер: Тайлер Дэвидсон, Брайан Кэвэна-Джонс, Лия Буман
Актеры: Лоренс Фишбёрн, Патрик Дэвидсон, Брентон Туэйтс, Оливия Кук, Бо Напп, Джеффри Гроувер, Рой Кенни, Тимоти Холмс, Рикардо Кампос, Дрю Сайкес

Описание фильма:
Трое студентов-хакеров неожиданно начинают получать таинственные сообщения от незнакомца под ником NOMAD (Кочевник). Но они даже не подозревают, что имеют дело не с человеком, а с внеземным разумом. После серии необъяснимых происшествий друзья бегут из опасной ловушки, но тут же становятся объектами охоты «людей в чёрном», которые считают, что после контакта хакеры могут представлять угрозу для всего человечества.

Перевод: Двуголосый закадровый, любительский (Savetig Studios)
Субтитры: Вшитые не отключаемые
Язык субтитров: Корейский

Дата мировой премьеры: 20 января 2014
Дата российской премьеры: 4 сентября 2014, «Централ Партнершип»



Рейтинг MPAA: PG-13
Возраст: 12+

Продолжительность: 01:34:12
Качество видео: WEBRip

Видеокодек: XviD
Битрейт видео: 1870 kb/s
Размер кадра: 720x304
Аудиокодек: AC3 2.0
Битрейт аудио: 192 kb/s
Код:
Код:
Общее
Полное имя                               : D:\Раздачи\Signal.2014.WEBRip.NNM-CLUB.avi
Формат                                   : AVI
Формат/Информация                        : Audio Video Interleave
Размер файла                             : 1,36 Гбайт
Продолжительность                        : 1 ч. 34 м.
Общий поток                              : 2071 Кбит/сек
Программа кодирования                    : VirtualDubMod 1.5.10.2 (build 2540/release)
Библиотека кодирования                   : VirtualDubMod build 2540/release

Видео
Идентификатор                            : 0
Формат                                   : MPEG-4 Visual
Профиль формата                          : Advanced Simple@L5
Параметр BVOP формата                    : 2
Параметр QPel формата                    : Нет
Параметр GMC формата                     : Без точки перехода
Параметр матрицы формата                 : Default (MPEG)
Идентификатор кодека                     : XVID
Идентификатор кодека/Подсказка           : XviD
Продолжительность                        : 1 ч. 34 м.
Битрейт                                  : 1870 Кбит/сек
Ширина                                   : 720 пикселей
Высота                                   : 304 пикселя
Соотношение сторон                       : 2,35:1
Частота кадров                           : 24,000 кадра/сек
Цветовое пространство                    : YUV
Субдискретизация насыщенности            : 4:2:0
Битовая глубина                          : 8 бит
Тип развёртки                            : Прогрессивная
Метод сжатия                             : С потерями
Бит/(Пиксели*Кадры)                      : 0.356
Размер потока                            : 1,23 Гбайт (90%)
Библиотека кодирования                   : XviD 1.2.1 (UTC 2008-12-04)

Аудио
Идентификатор                            : 1
Формат                                   : AC-3
Формат/Информация                        : Audio Coding 3
Расширение режима                        : CM (complete main)
Параметр Endianness формата              : Big
Идентификатор кодека                     : 2000
Продолжительность                        : 1 ч. 34 м.
Вид битрейта                             : Постоянный
Битрейт                                  : 192 Кбит/сек
Каналы                                   : 2 канала
Расположение каналов                     : Front: L R
Частота                                  : 48,0 КГц
Битовая глубина                          : 16 бит
Метод сжатия                             : С потерями
Размер потока                            : 129 Мбайт (9%)
Выравнивание                             : Разделение по промежуткам
Продолжительность промежутка             : 42  мс. (1,00 видеокадр)
Время предзагрузки промежутка            : 500  мс.
Скриншоты:
загрузка...
Правила, инструкции, FAQ!!!
Торрент  Добавлен [18 авг 2014, 19:56] Зарегистрируйтесь чтобы скачивать торрент

Статус
Проверен 
 
Размер  1.36 ГБ
Приватный: Нет (DHT включён)
.torrent скачан  0
Как залить торрент? | Как скачать Torrent? | Как смотреть и слушать онлайн?  


     Отправить личное сообщение
   
Страница 1 из 1
Показать сообщения за:  Поле сортировки  
Начать новую тему Ответить на тему

   Похожие торренты   Автор   Ответы   Просмотры   Последнее сообщение 
В этой теме нет новых непрочитанных сообщений. Сигнал / The Signal (2014) WEBRip [H.264/720p-LQ]

в форуме Новинки кино, Размер: 2.34 ГБ, Здоровье: 0%

Anonymous

0
0|0

214
0

18 авг 2014, 11:50

Anonymous Перейти к последнему сообщению

В этой теме нет новых непрочитанных сообщений. Скачать торрент Проверен (Rock) [LP] [24/96] Сигнал (Signal) - 4 - 1983, FLAC (tracks+.cue)

в форуме Зарубежный рок (оцифровки), Размер: 801.7 МБ, Здоровье: 0%

Anonymous

0
0|0

3
0

26 авг 2016, 09:46

Anonymous Перейти к последнему сообщению

В этой теме нет новых непрочитанных сообщений. Скачать торрент Проверен (Rock/ Hard Rock) Сигнал (Signal) - (3 EP + 3 LP + 1 MC + 11 CD), 1978 - 2011, MP3, 320 kbps

в форуме Classic Rock & Hard Rock, Размер: 2.65 ГБ, Здоровье: 0%

Anonymous

0
0|0

0
0

13 ноя 2016, 19:43

Anonymous Перейти к последнему сообщению

В этой теме нет новых непрочитанных сообщений. Скачать торрент Проверен (East Rock/Hard Rock) Сигнал (Bulgaria, Signal - 6 albums) - 6 Албум - 2005, APE (image+.cue), lossless

в форуме Classic Rock & Hard Rock, Размер: 2.81 ГБ, Здоровье: 0%

Anonymous

0
0|0

3
0

03 сен 2016, 16:48

Anonymous Перейти к последнему сообщению

В этой теме нет новых непрочитанных сообщений. Скачать торрент Проверен (East Rock/Hard Rock) Сигнал (Bulgaria,Signal) - Златна Колекция (Gold Collection 3cd's boxset) - 2007, FLAC (image+.cue), lossless

в форуме Classic Rock & Hard Rock, Размер: 1.42 ГБ, Здоровье: 0%

Anonymous

0
0|0

0
0

03 сен 2016, 17:04

Anonymous Перейти к последнему сообщению



Сейчас этот форум просматривают: нет зарегистрированных пользователей и гости: 5


Вы не можете начинать темы
Вы не можете отвечать на сообщения
Вы не можете редактировать свои сообщения
Вы не можете удалять свои сообщения
Вы не можете добавлять вложения

Перейти:  

!ВНИМАНИЕ!
 Ресурс не предоставляет электронные версии произведений, а занимается лишь коллекционированием и каталогизацией ссылок, присылаемых и публикуемых на форуме нашими читателями. Если вы являетесь правообладателем какого-либо представленного материала и не желаете чтобы ссылка на него находилась в нашем каталоге, свяжитесь с нами и мы незамедлительно удалим её. Файлы для обмена на трекере предоставлены пользователями сайта, и администрация не несёт ответственности за их содержание. Просьба не заливать файлы, защищенные авторскими правами, а также файлы нелегального содержания!