На всех торрентах на трекере установлена скидка на скачивание в размере 100 процентов(а).
 Возможность скачивания торрента НЕ зависит от ограничений при низком ратио, низком аплоаде, требуемом ратио или требуемом аплоаде.


Начать новую тему Ответить на тему
Статистика раздачи
Размер: 2.34 ГБ | Добавлен: 18 авг 2014, 11:50 | Скачали: 0
Сидеров: 0  [0 байт/сек]    Личеров: 0  [0 байт/сек]
Пред. тема | След. тема 

Автор
Сообщение

СообщениеДобавлено: 18 авг 2014, 11:50 

Год выпуска: 2014
Производство: США, Automatik Entertainment, Low Spark Films
Жанр: Фантастика, Триллер
Перевод: Двуголосый закадровый, любительский (Savetig Studios), Одноголосый закадровый (PashaUP)
Субтитры: Вшитые не отключаемые
Язык субтитров: Корейский

Режиссер: Уильям Юбэнк
Продюсер: Тайлер Дэвидсон, Брайан Кэвэна-Джонс, Лия Буман
Актеры: Лоренс Фишбёрн, Патрик Дэвидсон, Брентон Туэйтс, Оливия Кук, Бо Напп, Джеффри Гроувер, Рой Кенни, Тимоти Холмс, Рикардо Кампос, Дрю Сайкес

Описание фильма:
Трое студентов-хакеров неожиданно начинают получать таинственные сообщения от незнакомца под ником NOMAD (Кочевник). Но они даже не подозревают, что имеют дело не с человеком, а с внеземным разумом. После серии необъяснимых происшествий друзья бегут из опасной ловушки, но тут же становятся объектами охоты «людей в чёрном», которые считают, что после контакта хакеры могут представлять угрозу для всего человечества.



Дата мировой премьеры: 20 января 2014
Дата российской премьеры: 4 сентября 2014, «Централ Партнершип»

Рейтинг MPAA: PG-13
Возраст: 12+

Продолжительность: 01:34:12
Качество видео: WEBRip [profile-LQ]

Видеокодек: MPEG-4 AVC/H.264
Битрейт видео: 3000 kb/s
Размер кадра: 1280x536
Audio #1: 48 kHz, AC3 Dolby Digital, 2/0 (L,R) ch, 192 kbps (Русский) / Двухголосый
Audio #2: 48 kHz, AC3 Dolby Digital, 2/0 (L,R) ch, 192 kbps (Русский) / Одноголосый
Audio #3: 48 kHz, AC3 Dolby Digital, 2/0 (L,R) ch, 224 kbps (Английский) / Оригинал
Код:
Код:
Общее
Уникальный идентификатор                 : 233453887707909845853593452821810959356 (0xAFA19552F43A9AAFA7EDBDCE3652D3FC)
Полное имя                               : D:\Раздачи\Signal.2014.WEBRip.720p.NNM-CLUB.mkv
Формат                                   : Matroska
Версия формата                           : Version 4 / Version 2
Размер файла                             : 2,34 Гбайт
Продолжительность                        : 1 ч. 34 м.
Общий поток                              : 3556 Кбит/сек
Дата кодирования                         : UTC 2014-08-17 17:31:40
Программа кодирования                    : mkvmerge v6.1.0 ('Old Devil') built on Mar  4 2013 09:10:42
Библиотека кодирования                   : libebml v1.3.0 + libmatroska v1.4.0

Видео
Идентификатор                            : 1
Формат                                   : AVC
Формат/Информация                        : Advanced Video Codec
Профиль формата                          :
Параметр CABAC формата                   : Да
Параметр ReFrames формата                : 4 кадра
Идентификатор кодека                     : V_MPEG4/ISO/AVC
Продолжительность                        : 1 ч. 34 м.
Битрейт                                  : 3000 Кбит/сек
Ширина                                   : 1280 пикселей
Высота                                   : 536 пикселей
Соотношение сторон                       : 2,40:1
Режим частоты кадров                     : Постоянный
Частота кадров                           : 24,000 кадра/сек
Цветовое пространство                    : YUV
Субдискретизация насыщенности            : 4:2:0
Битовая глубина                          : 8 бит
Тип развёртки                            : Прогрессивная
Бит/(Пиксели*Кадры)                      : 0.182
Размер потока                            : 1,89 Гбайт (81%)
Библиотека кодирования                   : x264 core 142 r2431 ac76440
Настройки программы                      : cabac=1 / ref=4 / deblock=1:0:0 / analyse=0x3:0x113 / me=umh / subme=8 / psy=1 / psy_rd=1.00:0.00 / mixed_ref=1 / me_range=16 / chroma_me=1 / trellis=1 / 8x8dct=1 / cqm=0 / deadzone=21,11 / fast_pskip=1 / chroma_qp_offset=-2 / threads=12 / lookahead_threads=2 / sliced_threads=0 / nr=0 / decimate=1 / interlaced=0 / bluray_compat=0 / constrained_intra=0 / bframes=3 / b_pyramid=2 / b_adapt=2 / b_bias=0 / direct=3 / weightb=1 / open_gop=0 / weightp=2 / keyint=240 / keyint_min=24 / scenecut=40 / intra_refresh=0 / rc_lookahead=50 / rc=abr / mbtree=1 / bitrate=3000 / ratetol=1.0 / qcomp=0.60 / qpmin=0 / qpmax=69 / qpstep=4 / vbv_maxrate=17500 / vbv_bufsize=17500 / nal_hrd=none / filler=0 / ip_ratio=1.40 / aq=1:1.00
Язык                                     : English
Default                                  : Да
Forced                                   : Нет
Основные цвета                           : BT.709
Характеристики трансфера                 : BT.709
Коэффициенты матрицы                     : BT.709

Аудио #1
Идентификатор                            : 2
Формат                                   : AC-3
Формат/Информация                        : Audio Coding 3
Расширение режима                        : CM (complete main)
Параметр Endianness формата              : Big
Идентификатор кодека                     : A_AC3
Продолжительность                        : 1 ч. 34 м.
Вид битрейта                             : Постоянный
Битрейт                                  : 192 Кбит/сек
Каналы                                   : 2 канала
Расположение каналов                     : Front: L R
Частота                                  : 48,0 КГц
Битовая глубина                          : 16 бит
Метод сжатия                             : С потерями
Задержка видео                           : -83 мс.
Размер потока                            : 129 Мбайт (5%)
Заголовок                                : Savetig Studios
Язык                                     : Russian
Default                                  : Да
Forced                                   : Нет

Аудио #2
Идентификатор                            : 3
Формат                                   : AC-3
Формат/Информация                        : Audio Coding 3
Расширение режима                        : CM (complete main)
Параметр Endianness формата              : Big
Идентификатор кодека                     : A_AC3
Продолжительность                        : 1 ч. 34 м.
Вид битрейта                             : Постоянный
Битрейт                                  : 192 Кбит/сек
Каналы                                   : 2 канала
Расположение каналов                     : Front: L R
Частота                                  : 48,0 КГц
Битовая глубина                          : 16 бит
Метод сжатия                             : С потерями
Задержка видео                           : -83 мс.
Размер потока                            : 129 Мбайт (5%)
Заголовок                                : PashaUP
Язык                                     : Russian
Default                                  : Нет
Forced                                   : Нет

Аудио #3
Идентификатор                            : 4
Формат                                   : AC-3
Формат/Информация                        : Audio Coding 3
Расширение режима                        : CM (complete main)
Параметр Endianness формата              : Big
Идентификатор кодека                     : A_AC3
Продолжительность                        : 1 ч. 34 м.
Вид битрейта                             : Постоянный
Битрейт                                  : 224 Кбит/сек
Каналы                                   : 2 канала
Расположение каналов                     : Front: L R
Частота                                  : 48,0 КГц
Битовая глубина                          : 16 бит
Метод сжатия                             : С потерями
Задержка видео                           : -5 мс.
Размер потока                            : 151 Мбайт (6%)
Язык                                     : English
Default                                  : Нет
Forced                                   : Нет
Скриншоты:
загрузка...
Правила, инструкции, FAQ!!!
Торрент  Добавлен [18 авг 2014, 11:50] Зарегистрируйтесь чтобы скачивать торрент

Статус
Проверен 
 
Размер  2.34 ГБ
Приватный: Нет (DHT включён)
.torrent скачан  0
Как залить торрент? | Как скачать Torrent? | Как смотреть и слушать онлайн?  


     Отправить личное сообщение
   
Страница 1 из 1
Показать сообщения за:  Поле сортировки  
Начать новую тему Ответить на тему

   Похожие торренты   Автор   Ответы   Просмотры   Последнее сообщение 
В этой теме нет новых непрочитанных сообщений. Сигнал / The Signal (2014) WEBRip

в форуме Новинки кино, Размер: 1.36 ГБ, Здоровье: 0%

Anonymous

0
0|0

200
0

18 авг 2014, 19:56

Anonymous Перейти к последнему сообщению

В этой теме нет новых непрочитанных сообщений. Скачать торрент Проверен (Rock) [LP] [24/96] Сигнал (Signal) - 4 - 1983, FLAC (tracks+.cue)

в форуме Зарубежный рок (оцифровки), Размер: 801.7 МБ, Здоровье: 0%

Anonymous

0
0|0

3
0

26 авг 2016, 09:46

Anonymous Перейти к последнему сообщению

В этой теме нет новых непрочитанных сообщений. Скачать торрент Проверен (Rock/ Hard Rock) Сигнал (Signal) - (3 EP + 3 LP + 1 MC + 11 CD), 1978 - 2011, MP3, 320 kbps

в форуме Classic Rock & Hard Rock, Размер: 2.65 ГБ, Здоровье: 0%

Anonymous

0
0|0

0
0

13 ноя 2016, 19:43

Anonymous Перейти к последнему сообщению

В этой теме нет новых непрочитанных сообщений. Скачать торрент Проверен (East Rock/Hard Rock) Сигнал (Bulgaria, Signal - 6 albums) - 6 Албум - 2005, APE (image+.cue), lossless

в форуме Classic Rock & Hard Rock, Размер: 2.81 ГБ, Здоровье: 0%

Anonymous

0
0|0

3
0

03 сен 2016, 16:48

Anonymous Перейти к последнему сообщению

В этой теме нет новых непрочитанных сообщений. Скачать торрент Проверен (East Rock/Hard Rock) Сигнал (Bulgaria,Signal) - Златна Колекция (Gold Collection 3cd's boxset) - 2007, FLAC (image+.cue), lossless

в форуме Classic Rock & Hard Rock, Размер: 1.42 ГБ, Здоровье: 0%

Anonymous

0
0|0

0
0

03 сен 2016, 17:04

Anonymous Перейти к последнему сообщению



Сейчас этот форум просматривают: нет зарегистрированных пользователей и гости: 1


Вы не можете начинать темы
Вы не можете отвечать на сообщения
Вы не можете редактировать свои сообщения
Вы не можете удалять свои сообщения
Вы не можете добавлять вложения

Перейти:  

!ВНИМАНИЕ!
 Ресурс не предоставляет электронные версии произведений, а занимается лишь коллекционированием и каталогизацией ссылок, присылаемых и публикуемых на форуме нашими читателями. Если вы являетесь правообладателем какого-либо представленного материала и не желаете чтобы ссылка на него находилась в нашем каталоге, свяжитесь с нами и мы незамедлительно удалим её. Файлы для обмена на трекере предоставлены пользователями сайта, и администрация не несёт ответственности за их содержание. Просьба не заливать файлы, защищенные авторскими правами, а также файлы нелегального содержания!