На всех торрентах на трекере установлена скидка на скачивание в размере 100 процентов(а).
 Возможность скачивания торрента НЕ зависит от ограничений при низком ратио, низком аплоаде, требуемом ратио или требуемом аплоаде.


Начать новую тему Ответить на тему
Статистика раздачи
Размер: 4.16 ГБ | Добавлен: 04 июл 2014, 14:26 | Скачали: 295
Сидеров: 296  [0 байт/сек]    Личеров: 6  [0 байт/сек]
Пред. тема | След. тема 

Автор
Сообщение

СообщениеДобавлено: 04 июл 2014, 14:26 

Название: Превосходство
Оригинальное название: Transcendence
Год выхода: 2014
Жанр: фантастика, триллер, драма, детектив
Режиссер: Уолли Пфистер

В ролях: Джонни Депп, Ребекка Холл, Пол Беттани, Киллиан Мёрфи, Кейт Мара, Коул Хаузер, Морган Фриман, Клифтон Коллинз мл., Кори Хардрикт, Фальк Хеншел

О фильме: Выдающийся исследователь в области изучения искусственного интеллекта Доктор Уилл Кастер работает над созданием компьютера, который сможет собрать в себе все знания и опыт, накопленные человечеством. Достаточно спорные эксперименты, проводимые Уиллом, прославили его, и в то же время сделали основной целью радикальной анти-технологической группировки. Экстремисты делают все возможное, чтобы остановить его.

Однако в своих попытках уничтожить Уилла они добиваются обратного и становятся невольными участниками становления его абсолютного превосходства. Для его жены Эвелин и лучшего друга Макса Вотерса, тоже ученых-исследователей, встает вопрос должны ли они продолжать этот эксперимент. Их худшие опасения претворяются в жизнь, когда жажда знаний Уилла переходит в неконтролируемую жажду власти…




Выпущено: Великобритания, США, Китай, Alcon Entertainment, DMG Entertainment, Straight Up Films, Syncopy
Продолжительность: 01:59:15
Озвучивание: Авторское (одноголосное) [Д. Есарев]


Формат: MKV
Качество: WEB-DL 720p
Видео: 4063 kb/s, 1280x530
Аудио: Russian: AC3, 448 kb/s (6 ch) / English: AC3, 384 kb/s (6 ch)

Format : Matroska
Format version : Version 4 / Version 2
File size : 4.16 GiB
Duration : 1h 59mn
Overall bit rate : 4 995 Kbps
Encoded date : UTC 2014-07-04 10:21:25
Writing application : mkvmerge v6.1.0 ('Old Devil') built on Mar 4 2013 09:10:42
Writing library : libebml v1.3.0 + libmatroska v1.4.0

Video
ID : 1
Format : AVC
Format/Info : Advanced Video Codec
Format profile : Main@L3.1
Format settings, CABAC : No
Format settings, ReFrames : 2 frames
Format settings, GOP : N=1
Codec ID : V_MPEG4/ISO/AVC
Duration : 1h 59mn
Bit rate : 4 063 Kbps
Width : 1 280 pixels
Height : 530 pixels
Display aspect ratio : 2.40:1
Frame rate : 23.976 fps
Color space : YUV
Chroma subsampling : 4:2:0
Bit depth : 8 bits
Scan type : Progressive
Bits/(Pixel*Frame) : 0.250
Stream size : 3.38 GiB (81%)
Language : English
Default : Yes
Forced : No
Color primaries : BT.709-5, BT.1361, IEC 61966-2-4, SMPTE RP177
Transfer characteristics : BT.709-5, BT.1361
Matrix coefficients : BT.709-5, BT.1361, IEC 61966-2-4 709, SMPTE RP177

Audio #1
ID : 2
Format : AC-3
Format/Info : Audio Coding 3
Mode extension : CM (complete main)
Format settings, Endianness : Big
Codec ID : A_AC3
Duration : 1h 59mn
Bit rate mode : Constant
Bit rate : 448 Kbps
Channel(s) : 6 channels
Channel positions : Front: L C R, Side: L R, LFE
Sampling rate : 48.0 KHz
Bit depth : 16 bits
Compression mode : Lossy
Stream size : 382 MiB (9%)
Language : Russian
Default : Yes
Forced : No

Audio #2
ID : 3
Format : AC-3
Format/Info : Audio Coding 3
Mode extension : CM (complete main)
Format settings, Endianness : Big
Codec ID : A_AC3
Duration : 1h 59mn
Bit rate mode : Constant
Bit rate : 384 Kbps
Channel(s) : 6 channels
Channel positions : Front: L C R, Side: L R, LFE
Sampling rate : 48.0 KHz
Bit depth : 16 bits
Compression mode : Lossy
Stream size : 328 MiB (8%)
Language : English
Default : No
Forced : No

Menu
00:00:00.000 : en:1.
00:11:18.000 : en:2.
00:19:18.000 : en:3.
00:30:56.000 : en:4.
00:39:42.000 : en:5.
00:50:15.000 : en:6.
01:00:20.000 : en:7.
01:11:01.000 : en:8.
01:20:05.000 : en:9.
01:29:28.000 : en:10.
01:40:24.000 : en:11.
01:50:45.000 : en:12.
загрузка...
Правила, инструкции, FAQ!!!
Торрент  Добавлен [04 июл 2014, 14:26] Зарегистрируйтесь чтобы скачивать торрент

Статус
Проверен 
 
Размер  4.16 ГБ
Приватный: Нет (DHT включён)
.torrent скачан  295
Как залить торрент? | Как скачать Torrent? | Как смотреть и слушать онлайн?  


     Отправить личное сообщение
   
Страница 1 из 1
Показать сообщения за:  Поле сортировки  
Начать новую тему Ответить на тему

   Похожие торренты   Автор   Ответы   Просмотры   Последнее сообщение 
В этой теме нет новых непрочитанных сообщений. Превосходство / Transcendence (2014) WEB-DLRip-AVC | Д. Есарев

в форуме Новинки кино, Размер: 2.18 ГБ, Здоровье: 100%

Anonymous

0
503|5

95
122

04 июл 2014, 14:22

Anonymous Перейти к последнему сообщению

В этой теме нет новых непрочитанных сообщений. Скачать торрент Проверен Превосходство / Transcendence (2014) HDRip | D

в форуме Фантастика, Фэнтези, Размер: 1.37 ГБ, Здоровье: 100%

Anonymous

0
709|10

53
571

09 июл 2014, 09:11

Anonymous Перейти к последнему сообщению

В этой теме нет новых непрочитанных сообщений. Скачать торрент Проверен Превосходство / Transcendence (2014) BDRip 1080p от Ash61 | 3D-Video | halfOU | Чистый звук

в форуме HD-Video в 3D, Размер: 6.6 ГБ, Здоровье: 100%

Anonymous

0
652|66

255
6519

08 ноя 2014, 22:43

Anonymous Перейти к последнему сообщению

В этой теме нет новых непрочитанных сообщений. Скачать торрент Проверен Убийца / Sicario (2015) BDRip 720p | Есарев

в форуме 720p | 1080p, Размер: 5.13 ГБ, Здоровье: 100%

Anonymous

0
1482|150

258
8134

20 дек 2015, 21:54

Anonymous Перейти к последнему сообщению

В этой теме нет новых непрочитанных сообщений. Закрыто правообладателем Интервью / The Interview (2014) HDRip | Есарев Данный торрент является блокированным, причина: Закрыто правообладателем

в форуме Боевики, Размер: 2.05 ГБ, Здоровье: 70%

Гость

0
120|171

246
119

31 янв 2015, 11:10

Гость Перейти к последнему сообщению



Сейчас этот форум просматривают: нет зарегистрированных пользователей и гости: 1


Вы не можете начинать темы
Вы не можете отвечать на сообщения
Вы не можете редактировать свои сообщения
Вы не можете удалять свои сообщения
Вы не можете добавлять вложения

Перейти:  

!ВНИМАНИЕ!
 Ресурс не предоставляет электронные версии произведений, а занимается лишь коллекционированием и каталогизацией ссылок, присылаемых и публикуемых на форуме нашими читателями. Если вы являетесь правообладателем какого-либо представленного материала и не желаете чтобы ссылка на него находилась в нашем каталоге, свяжитесь с нами и мы незамедлительно удалим её. Файлы для обмена на трекере предоставлены пользователями сайта, и администрация не несёт ответственности за их содержание. Просьба не заливать файлы, защищенные авторскими правами, а также файлы нелегального содержания!