На всех торрентах на трекере установлена скидка на скачивание в размере 100 процентов(а).
 Возможность скачивания торрента НЕ зависит от ограничений при низком ратио, низком аплоаде, требуемом ратио или требуемом аплоаде.


Начать новую тему Ответить на тему
Статистика раздачи
Размер: 5.31 ГБ | Добавлен: 17 май 2014, 19:13 | Скачали: 0
Сидеров: 18  [0 байт/сек]    Личеров: 4  [0 байт/сек]
Пред. тема | След. тема 

Автор
Сообщение

СообщениеДобавлено: 17 май 2014, 19:13 

3 дня на убийство / 3 Days to Kill (2014) BDRip [720p]

Год выпуска: 2014
Производство: США, Франция, Греция, Россия
Жанр: Боевик, Триллер, Драма

Режиссер: МакДжи
Продюсер: Люк Бессон, Ади Хасак, Райан Кэвэна
Актеры: Кевин Костнер, Эмбер Хёрд, Хейли Стайнфелд, Конни Нильсен, Томас Лемаркус, Рихард Заммель, Марк Андреони, Бруно Риччи, Йонас Блоке, Эрик Эбони

Описание фильма:
В секретной лаборатории ученые разработали препарат, который позволяет человеку справиться с любой неизлечимой болезнью. Руководство спецслужб предлагает принять это лекарство экс-агенту спецслужб Итану Раннеру, которому врачи объявили смертельный диагноз. Но он должен выполнить еще одно задание, которое, впрочем, может стоить ему жизни. Теперь вокруг Раннера начинают происходить странные вещи. Что это — галлюцинации, побочный эффект от таблеток или мир действительно полон ужаса и кошмара?

Перевод: Дублированный (Чистый звук), Одноголосый закадровый, любительский (Дмитрий Есарев)
Субтитры: Вшитые отключаемые
Язык субтитров: Русский (Forced, Full), Английский
Примечание: Расширенные сцены (в дубляже) переведены русскими субтитрами

Рейтинг MPAA: PG-13 (детям до 13 лет просмотр не желателен)
Возраст: 12+



Дата мировой премьеры: 12 февраля 2014
Дата российской премьеры: 10 апреля 2014, «Парадиз»
Дата выхода DVD релиза: 10 июня 2014, «Парадиз / Активижен»

Продолжительность: 02:02:18
Качество видео: BDRip [720p] [CHD]

Видеокодек: MPEG-4 AVC/H.264
Битрейт видео: ~4935 Kbps
Размер кадра: 1280x536, 23,976 fps
Аудио #1: AC3, 48.0 KHz, 2 ch, 192 Kbps, CBR (Русский, Дубляж)
Аудио #2: AC3, 48.0 KHz, 6 ch, 448 Kbps, CBR (Русский, Одноголосый закадровый)
Аудио #3: AC3, 48.0 KHz, 6 ch, 640 Kbps, CBR (Английский)
• За перевод Дмитрия Есарева, спасибо mihey10
• За работа со звуком, спасибо Переводман
Код:
Код:
Формат                                   : Matroska
Версия формата                           : Version 2
Размер файла                             : 5,31 Гбайт
Продолжительность                        : 2 ч. 2 м.
Общий поток                              : 6217 Кбит/сек
Название фильма                          : 3 Days to Kill (2014)
Дата кодирования                         : UTC 2014-05-16 09:46:49
Программа кодирования                    : mkvmerge v6.9.1 ('Blue Panther') 64bit built on Apr 18 2014 18:23:38
Библиотека кодирования                   : libebml v1.3.0 + libmatroska v1.4.1
Attachment                               : Yes

Видео
Идентификатор                            : 1
Формат                                   : AVC
Формат/Информация                        : Advanced Video Codec
Профиль формата                          :
Параметр CABAC формата                   : Да
Параметр ReFrames формата                : 11 кадров
Идентификатор кодека                     : V_MPEG4/ISO/AVC
Продолжительность                        : 2 ч. 2 м.
Битрейт                                  : 4935 Кбит/сек
Ширина                                   : 1280 пикселей
Высота                                   : 536 пикселей
Соотношение сторон                       : 2,40:1
Режим частоты кадров                     : Постоянный
Частота кадров                           : 23,976 кадра/сек
Цветовое пространство                    : YUV
Субдискретизация насыщенности            : 4:2:0
Битовая глубина                          : 8 бит
Тип развёртки                            : Прогрессивная
Бит/(Пиксели*Кадры)                      : 0.300
Размер потока                            : 4,11 Гбайт (77%)
Библиотека кодирования                   : x264 core 138 r2356 a1d3d17
Настройки программы                      : cabac=1 / ref=11 / deblock=1:-3:-3 / analyse=0x3:0x113 / me=umh / subme=10 / psy=1 / psy_rd=1.00:0.05 / mixed_ref=1 / me_range=32 / chroma_me=1 / trellis=2 / 8x8dct=1 / cqm=0 / deadzone=21,11 / fast_pskip=0 / chroma_qp_offset=-2 / threads=18 / lookahead_threads=1 / sliced_threads=0 / nr=0 / decimate=1 / interlaced=0 / bluray_compat=0 / constrained_intra=0 / bframes=4 / b_pyramid=2 / b_adapt=2 / b_bias=0 / direct=3 / weightb=1 / open_gop=0 / weightp=2 / keyint=250 / keyint_min=23 / scenecut=40 / intra_refresh=0 / rc=2pass / mbtree=0 / bitrate=4935 / ratetol=1.0 / qcomp=0.70 / qpmin=0 / qpmax=69 / qpstep=4 / cplxblur=20.0 / qblur=0.5 / ip_ratio=1.40 / pb_ratio=1.30 / aq=2:0.90
Язык                                     : English
Default                                  : Да
Forced                                   : Нет

Аудио #1
Идентификатор                            : 2
Формат                                   : AC-3
Формат/Информация                        : Audio Coding 3
Расширение режима                        : CM (complete main)
Параметр Endianness формата              : Big
Идентификатор кодека                     : A_AC3
Продолжительность                        : 2 ч. 2 м.
Вид битрейта                             : Постоянный
Битрейт                                  : 192 Кбит/сек
Каналы                                   : 2 канала
Расположение каналов                     : Front: L R
Частота                                  : 48,0 КГц
Битовая глубина                          : 16 бит
Метод сжатия                             : С потерями
Размер потока                            : 168 Мбайт (3%)
Заголовок                                : Line
Язык                                     : Russian
Default                                  : Да
Forced                                   : Нет

Аудио #2
Идентификатор                            : 3
Формат                                   : AC-3
Формат/Информация                        : Audio Coding 3
Расширение режима                        : CM (complete main)
Параметр Endianness формата              : Big
Идентификатор кодека                     : A_AC3
Продолжительность                        : 2 ч. 2 м.
Вид битрейта                             : Постоянный
Битрейт                                  : 448 Кбит/сек
Каналы                                   : 6 каналов
Расположение каналов                     : Front: L C R, Side: L R, LFE
Частота                                  : 48,0 КГц
Битовая глубина                          : 16 бит
Метод сжатия                             : С потерями
Размер потока                            : 392 Мбайт (7%)
Заголовок                                : VO
Язык                                     : Russian
Default                                  : Нет
Forced                                   : Нет

Аудио #3
Идентификатор                            : 4
Формат                                   : AC-3
Формат/Информация                        : Audio Coding 3
Расширение режима                        : CM (complete main)
Параметр Endianness формата              : Big
Идентификатор кодека                     : A_AC3
Продолжительность                        : 2 ч. 2 м.
Вид битрейта                             : Постоянный
Битрейт                                  : 640 Кбит/сек
Каналы                                   : 6 каналов
Расположение каналов                     : Front: L C R, Side: L R, LFE
Частота                                  : 48,0 КГц
Битовая глубина                          : 16 бит
Метод сжатия                             : С потерями
Размер потока                            : 560 Мбайт (10%)
Язык                                     : English
Default                                  : Нет
Forced                                   : Нет

Текст #1
Идентификатор                            : 5
Формат                                   : UTF-8
Идентификатор кодека                     : S_TEXT/UTF8
Идентификатор кодека/Информация          : UTF-8 Plain Text
Заголовок                                : Forced
Язык                                     : Russian
Default                                  : Да
Forced                                   : Нет

Текст #2
Идентификатор                            : 6
Формат                                   : UTF-8
Идентификатор кодека                     : S_TEXT/UTF8
Идентификатор кодека/Информация          : UTF-8 Plain Text
Заголовок                                : Full
Язык                                     : Russian
Default                                  : Нет
Forced                                   : Нет

Текст #3
Идентификатор                            : 7
Формат                                   : UTF-8
Идентификатор кодека                     : S_TEXT/UTF8
Идентификатор кодека/Информация          : UTF-8 Plain Text
Язык                                     : English
Default                                  : Нет
Forced                                   : Нет

Меню
00:00:00.000                             : en:00:00:00.000
00:03:35.132                             : en:00:03:35.132
00:06:58.543                             : en:00:06:58.543
00:10:56.573                             : en:00:10:56.573
00:16:00.710                             : en:00:16:00.710
00:20:51.709                             : en:00:20:51.709
00:25:05.963                             : en:00:25:05.963
00:29:24.346                             : en:00:29:24.346
00:34:20.392                             : en:00:34:20.392
00:37:46.806                             : en:00:37:46.806
00:40:27.300                             : en:00:40:27.300
00:44:05.226                             : en:00:44:05.226
00:49:24.795                             : en:00:49:24.795
00:53:16.443                             : en:00:53:16.443
00:57:40.874                             : en:00:57:40.874
01:08:28.396                             : en:01:08:28.396
01:13:37.621                             : en:01:13:37.621
01:19:51.828                             : en:01:19:51.828
01:25:59.070                             : en:01:25:59.070
01:32:28.167                             : en:01:32:28.167
01:39:10.569                             : en:01:39:10.569
01:42:49.413                             : en:01:42:49.413
01:51:49.452                             : en:01:51:49.452
01:54:55.597                             : en:01:54:55.597
Скриншоты:




загрузка...
Правила, инструкции, FAQ!!!
Торрент  Добавлен [17 май 2014, 19:13] Зарегистрируйтесь чтобы скачивать торрент

Статус  
 
Размер  5.31 ГБ
Приватный: Нет (DHT включён)
.torrent скачан  0
Как залить торрент? | Как скачать Torrent? | Как смотреть и слушать онлайн?  


     Отправить личное сообщение
   
Страница 1 из 1
Показать сообщения за:  Поле сортировки  
Начать новую тему Ответить на тему

   Похожие торренты   Автор   Ответы   Просмотры   Последнее сообщение 
В этой теме нет новых непрочитанных сообщений. 3 дня на убийство / 3 Days to Kill (2014) HDRip [Extended Cut] [Line]

в форуме Новинки кино, Размер: 1.37 ГБ, Здоровье: 100%

Anonymous

0
2|1

105
3

17 май 2014, 19:07

Anonymous Перейти к последнему сообщению

В этой теме нет новых непрочитанных сообщений. 3 дня на убийство / 3 Days to Kill (2014) BDRip 1080p| Чистый звук

в форуме Новинки кино, Размер: 6.81 ГБ, Здоровье: 100%

Anonymous

0
51|5

99
17

19 май 2014, 12:56

Anonymous Перейти к последнему сообщению

В этой теме нет новых непрочитанных сообщений. 3 дня на убийство / 3 Days to Kill (2014) TS

в форуме Новинки кино, Размер: 1.37 ГБ, Здоровье: 0%

Anonymous

0
0|0

104
0

17 апр 2014, 21:39

Anonymous Перейти к последнему сообщению

В этой теме нет новых непрочитанных сообщений. Скачать торрент Проверен [VIDEO] 3 дня на убийство / 3 Days to Kill (МакДжи / McG) [2014, боевик, криминал, триллер, драма, WEB-DLRip] [MP4, 640x] [Theatrical Cut] Dub iTunes

в форуме Видео для смартфонов и КПК, Размер: 679.21 МБ, Здоровье: 100%

Anonymous

0
7|2

61
0

02 авг 2014, 16:55

Anonymous Перейти к последнему сообщению

В этой теме нет новых непрочитанных сообщений. Скачать торрент Проверен Город грехов 2: Женщина, ради которой стоит убивать / Sin City: A Dame to Kill For (2014) WEBRip [H.264/720p-LQ] [Line]

в форуме 720p | 1080p, Размер: 2.1 ГБ, Здоровье: 100%

Anonymous

0
3053|61

171
0

21 сен 2014, 21:35

Anonymous Перейти к последнему сообщению



Сейчас этот форум просматривают: нет зарегистрированных пользователей и гости: 2


Вы не можете начинать темы
Вы не можете отвечать на сообщения
Вы не можете редактировать свои сообщения
Вы не можете удалять свои сообщения
Вы не можете добавлять вложения

Перейти:  

!ВНИМАНИЕ!
 Ресурс не предоставляет электронные версии произведений, а занимается лишь коллекционированием и каталогизацией ссылок, присылаемых и публикуемых на форуме нашими читателями. Если вы являетесь правообладателем какого-либо представленного материала и не желаете чтобы ссылка на него находилась в нашем каталоге, свяжитесь с нами и мы незамедлительно удалим её. Файлы для обмена на трекере предоставлены пользователями сайта, и администрация не несёт ответственности за их содержание. Просьба не заливать файлы, защищенные авторскими правами, а также файлы нелегального содержания!