На всех торрентах на трекере установлена скидка на скачивание в размере 100 процентов(а).
 Возможность скачивания торрента НЕ зависит от ограничений при низком ратио, низком аплоаде, требуемом ратио или требуемом аплоаде.


Начать новую тему Ответить на тему
Статистика раздачи
Размер: 1.37 ГБ | Добавлен: 17 май 2014, 19:07 | Скачали: 3
Сидеров: 2  [0 байт/сек]    Личеров: 1  [0 байт/сек]
Пред. тема | След. тема 

Автор
Сообщение

СообщениеДобавлено: 17 май 2014, 19:07 

3 дня на убийство / 3 Days to Kill (2014) HDRip [Extended Cut] [Line]

Год выпуска: 2014
Производство: США, Франция, Relativity Media, EuropaCorp
Жанр: Боевик, Триллер, Драма
Перевод: Дублированный [Чистый звук]
Субтитры: Русские (Вшиты на расширенные сцены)

Режиссер: МакДжи
Продюсер: Люк Бессон, Ади Хасак, Райан Кэвэна
Актеры: Кевин Костнер, Эмбер Хёрд, Хейли Стайнфелд, Конни Нильсен, Томас Лемаркус, Рихард Заммель, Марк Андреони, Бруно Риччи, Йонас Блоке, Эрик Эбони

Описание фильма:
В секретной лаборатории ученые разработали препарат, который позволяет человеку справиться с любой неизлечимой болезнью. Руководство спецслужб предлагает принять это лекарство экс-агенту спецслужб Итану Раннеру, которому врачи объявили смертельный диагноз. Но он должен выполнить еще одно задание, которое, впрочем, может стоить ему жизни. Теперь вокруг Раннера начинают происходить странные вещи. Что это — галлюцинации, побочный эффект от таблеток или мир действительно полон ужаса и кошмара?



Дата мировой премьеры: 12 февраля 2014
Дата российской премьеры: 10 апреля 2014, «Парадиз»
Дата выхода DVD релиза: 10 июня 2014, «Парадиз / Активижен»

Продолжительность: 02:02:18
Качество видео: HDRip

Видеокодек: XviD
Битрейт видео: 1399 kb/s
Размер кадра: 720x304
Аудиокодек: AC3 2.0
Битрейт аудио: 192 kb/s
Сэмпл: Скачать
Общее
Полное имя : D:\Фильмы\3.dnja.na.ubijstvo.2014.EXTENDED.D.HDRip.1400Mb.avi
Формат : AVI
Формат/Информация : Audio Video Interleave
Размер файла : 1,37 Гбайт
Продолжительность : 2 ч. 2 м.
Общий поток : 1600 Кбит/сек
Программа кодирования : VirtualDubMod 1.5.10.2 (build 2540/release)
Библиотека кодирования : VirtualDubMod build 2540/release

Видео
Идентификатор : 0
Формат : MPEG-4 Visual
Профиль формата : Advanced Simple@L5
Параметр BVOP формата : 2
Параметр QPel формата : Нет
Параметр GMC формата : Без точки перехода
Параметр матрицы формата : Выборочная
Идентификатор кодека : XVID
Идентификатор кодека/Подсказка : XviD
Продолжительность : 2 ч. 2 м.
Битрейт : 1399 Кбит/сек
Ширина : 720 пикселей
Высота : 304 пикселя
Соотношение сторон : 2,35:1
Частота кадров : 23,976 кадра/сек
Цветовое пространство : YUV
Субдискретизация насыщенности : 4:2:0
Битовая глубина : 8 бит
Тип развёртки : Прогрессивная
Метод сжатия : С потерями
Бит/(Пиксели*Кадры) : 0.267
Размер потока : 1,20 Гбайт (87%)
Библиотека кодирования : XviD 1.2.1 (UTC 2008-12-04)

Аудио
Идентификатор : 1
Формат : AC-3
Формат/Информация : Audio Coding 3
Расширение режима : CM (complete main)
Параметр Endianness формата : Big
Идентификатор кодека : 2000
Продолжительность : 2 ч. 2 м.
Вид битрейта : Постоянный
Битрейт : 192 Кбит/сек
Каналы : 2 канала
Расположение каналов : Front: L R
Частота : 48,0 КГц
Битовая глубина : 16 бит
Метод сжатия : С потерями
Размер потока : 168 Мбайт (12%)
Выравнивание : Разделение по промежуткам
Продолжительность промежутка : 42 мс. (1,00 видеокадр)
Время предзагрузки промежутка : 500 мс.
Скриншоты:


загрузка...
Правила, инструкции, FAQ!!!
Торрент  Добавлен [17 май 2014, 19:07] Зарегистрируйтесь чтобы скачивать торрент

Статус  
 
Размер  1.37 ГБ
Приватный: Нет (DHT включён)
.torrent скачан  3
Как залить торрент? | Как скачать Torrent? | Как смотреть и слушать онлайн?  


     Отправить личное сообщение
   
Страница 1 из 1
Показать сообщения за:  Поле сортировки  
Начать новую тему Ответить на тему

   Похожие торренты   Автор   Ответы   Просмотры   Последнее сообщение 
В этой теме нет новых непрочитанных сообщений. 3 дня на убийство / 3 Days to Kill (2014) BDRip [720p] [Extended Cut] [Line]

в форуме Новинки кино, Размер: 5.31 ГБ, Здоровье: 100%

Anonymous

0
18|4

1817
0

17 май 2014, 19:13

Anonymous Перейти к последнему сообщению

В этой теме нет новых непрочитанных сообщений. 3 дня на убийство / 3 Days to Kill (2014) TS

в форуме Новинки кино, Размер: 1.37 ГБ, Здоровье: 0%

Anonymous

0
0|0

104
0

17 апр 2014, 21:39

Anonymous Перейти к последнему сообщению

В этой теме нет новых непрочитанных сообщений. 3 дня на убийство / 3 Days to Kill (2014) BDRip 1080p| Чистый звук

в форуме Новинки кино, Размер: 6.81 ГБ, Здоровье: 100%

Anonymous

0
51|5

100
17

19 май 2014, 12:56

Anonymous Перейти к последнему сообщению

В этой теме нет новых непрочитанных сообщений. Скачать торрент Проверен [VIDEO] 3 дня на убийство / 3 Days to Kill (МакДжи / McG) [2014, боевик, криминал, триллер, драма, WEB-DLRip] [MP4, 640x] [Theatrical Cut] Dub iTunes

в форуме Видео для смартфонов и КПК, Размер: 679.21 МБ, Здоровье: 100%

Anonymous

0
7|2

63
0

02 авг 2014, 16:55

Anonymous Перейти к последнему сообщению

В этой теме нет новых непрочитанных сообщений. Скачать торрент Проверен Хорошее убийство / Good Kill (Эндрю Никкол / Andrew Niccol) [2014, США, Драма, Военный, HDRip] MVO

в форуме Военные, Размер: 1.45 ГБ, Здоровье: 100%

Гость

0
247|69

208
353

06 авг 2015, 21:48

Гость Перейти к последнему сообщению



Сейчас этот форум просматривают: нет зарегистрированных пользователей и гости: 1


Вы не можете начинать темы
Вы не можете отвечать на сообщения
Вы не можете редактировать свои сообщения
Вы не можете удалять свои сообщения
Вы не можете добавлять вложения

Перейти:  

!ВНИМАНИЕ!
 Ресурс не предоставляет электронные версии произведений, а занимается лишь коллекционированием и каталогизацией ссылок, присылаемых и публикуемых на форуме нашими читателями. Если вы являетесь правообладателем какого-либо представленного материала и не желаете чтобы ссылка на него находилась в нашем каталоге, свяжитесь с нами и мы незамедлительно удалим её. Файлы для обмена на трекере предоставлены пользователями сайта, и администрация не несёт ответственности за их содержание. Просьба не заливать файлы, защищенные авторскими правами, а также файлы нелегального содержания!