На всех торрентах на трекере установлена скидка на скачивание в размере 100 процентов(а).
 Возможность скачивания торрента НЕ зависит от ограничений при низком ратио, низком аплоаде, требуемом ратио или требуемом аплоаде.


Начать новую тему Ответить на тему
Статистика раздачи
Размер: 3.08 ГБ | Добавлен: 15 май 2014, 21:11 | Скачали: 0
Сидеров: 0  [0 байт/сек]    Личеров: 0  [0 байт/сек]
Пред. тема | След. тема 

Автор
Сообщение

СообщениеДобавлено: 15 май 2014, 21:11 

Окулус / Oculus (2013) WEBDL 720p

«Хочешь жить – закрой глаза»


Год выпуска: 2013
Производство: США / Blumhouse Productions, Intrepid Pictures, WWE Studios
Жанр: Ужасы, Триллер
Перевод: Дублированный (iTunes)
Субтитры: Отсутствуют

Режиссер: Майк Флэнеган
Продюсер: Марк Д. Эванс, Тревор Мэйси, Морган Питер Браун
Актеры: Мигель Сандовал, Анналиса Бассо, Карен Гиллан, Джеймс Лэфферти, Скотт Грэхэм, Кэти Сакхофф, Рори Кокрейн, Кейт Сигел, Гаррет Райан, Брентон Туэйтес

Описание фильма:
Смерть родителей сильно повлияла на судьбу двух осиротевших детей. По прошествии времени, в двадцатилетнем возрасте, сестра все еще продолжает так считать и хочет доказать брату, что привидение, вышедшее из зеркала, стало причиной гибели близких людей и всех случившихся последующих бед...



Дата мировой премьеры: 8 сентября 2013
Дата российской премьеры: 10 апреля 2014, «Люксор»

Продолжительность: 01:42:45
Качество видео: WEBDL 720p

Видеокодек: MPEG-4 AVC/H.264
Битрейт видео: ~3811Kbps
Размер кадра: 1280x540, 24,000 fps
Aудио: Русский AC3, 3/2 (L,C,R,l,r) + LFE ch, ~384.00 kbps avg | Дубляж, iTunes Russia
Сэмпл: Скачать
Код:
Код:
    Общее
Уникальный идентификатор                 : 170914625158943714918094829275631689272 (0x8094F59EB1BE2D58911A40F7F22D9E38)
Полное имя                               :0ku1us.2014.D.WEB-DL.720p.nnm-club.mkv.
Формат                                   : Matroska
Версия формата                           : Version 4 / Version 2
Размер файла                             : 3,08 Гбайт
Продолжительность                        : 1 ч. 42 м.
Общий поток                              : 4280 Кбит/сек
Дата кодирования                         : UTC 2014-05-14 19:31:49
Программа кодирования                    : mkvmerge v6.1.0 ('Old Devil') built on Mar  4 2013 09:10:42
Библиотека кодирования                   : libebml v1.3.0 + libmatroska v1.4.0

Видео
Идентификатор                            : 1
Формат                                   : AVC
Формат/Информация                        : Advanced Video Codec
Профиль формата                          :
Параметр CABAC формата                   : Нет
Параметр ReFrames формата                : 2 кадра
Идентификатор кодека                     : V_MPEG4/ISO/AVC
Продолжительность                        : 1 ч. 42 м.
Битрейт                                  : 3811 Кбит/сек
Ширина                                   : 1280 пикселей
Высота                                   : 540 пикселей
Соотношение сторон                       : 2,40:1
Режим частоты кадров                     : Постоянный
Частота кадров                           : 24,000 кадра/сек
Цветовое пространство                    : YUV
Субдискретизация насыщенности            : 4:2:0
Битовая глубина                          : 8 бит
Тип развёртки                            : Прогрессивная
Бит/(Пиксели*Кадры)                      : 0.230
Размер потока                            : 2,74 Гбайт (89%)
Язык                                     : English
Default                                  : Да
Forced                                   : Нет
Основные цвета                           : BT.709
Характеристики трансфера                 : BT.709
Коэффициенты матрицы                     : BT.709

Аудио
Идентификатор                            : 2
Формат                                   : AC-3
Формат/Информация                        : Audio Coding 3
Расширение режима                        : CM (complete main)
Параметр Endianness формата              : Big
Идентификатор кодека                     : A_AC3
Продолжительность                        : 1 ч. 42 м.
Вид битрейта                             : Постоянный
Битрейт                                  : 384 Кбит/сек
Каналы                                   : 6 каналов
Расположение каналов                     : Front: L C R, Side: L R, LFE
Частота                                  : 48,0 КГц
Битовая глубина                          : 16 бит
Метод сжатия                             : С потерями
Размер потока                            : 283 Мбайт (9%)
Язык                                     : Russian
Default                                  : Да
Forced                                   : Нет

Меню
00:00:00.000                             : en:Глава 1
00:09:42.000                             : en:Глава 2
00:14:45.000                             : en:Глава 3
00:19:50.000                             : en:Глава 4
00:24:55.000                             : en:Глава 5
00:29:57.000                             : en:Глава 6
00:35:02.000                             : en:Глава 7
00:40:06.000                             : en:Глава 8
00:45:13.000                             : en:Глава 9
00:50:18.000                             : en:Глава 10
00:55:18.000                             : en:Глава 11
01:00:40.000                             : en:Глава 12
01:05:41.000                             : en:Глава 13
01:10:44.000                             : en:Глава 14
01:15:47.000                             : en:Глава 15
01:20:47.000                             : en:Глава 16
01:25:49.000                             : en:Глава 17
01:30:51.000                             : en:Глава 18
01:35:54.000                             : en:Глава 19
01:41:05.000                             : en:Глава 20
Скриншоты:

загрузка...
Правила, инструкции, FAQ!!!
Торрент  Добавлен [15 май 2014, 21:11] Зарегистрируйтесь чтобы скачивать торрент

Статус  
 
Размер  3.08 ГБ
Приватный: Нет (DHT включён)
.torrent скачан  0
Как залить торрент? | Как скачать Torrent? | Как смотреть и слушать онлайн?  


     Отправить личное сообщение
   
Страница 1 из 1
Показать сообщения за:  Поле сортировки  
Начать новую тему Ответить на тему

   Похожие торренты   Автор   Ответы   Просмотры   Последнее сообщение 
В этой теме нет новых непрочитанных сообщений. Скачать торрент Проверен Окулус / Oculus (2013) HDRip | iTunes

в форуме Ужасы, Размер: 1.37 ГБ, Здоровье: 0%

Anonymous

0
0|0

66
0

23 июл 2014, 21:56

Anonymous Перейти к последнему сообщению

В этой теме нет новых непрочитанных сообщений. Скачать торрент Проверен Окулус / Oculus (2014) BDRip 1080p | Лицензия

в форуме 720p | 1080p, Размер: 4.66 ГБ, Здоровье: 0%

Anonymous

0
0|0

49
0

21 фев 2015, 20:01

Anonymous Перейти к последнему сообщению

В этой теме нет новых непрочитанных сообщений. Скачать торрент Проверен (Symphonic/Epic Heavy Metal) Van Helsing's Curse - Oculus Infernum (Re-Mastered) - 2007, MP3 (tracks), 320 kbps

в форуме Heavy, Power, Progressive (Metal), Размер: 119.09 МБ, Здоровье: 0%

Anonymous

0
0|0

0
0

09 окт 2016, 14:32

Anonymous Перейти к последнему сообщению

В этой теме нет новых непрочитанных сообщений. Скачать торрент Проверен (Hard Rock, Progressive Metal) Van Helsing's Curse - Oculus Infernum [Koch Rec., KOC-CD-9524, USA] - 2003, FLAC (image+.cue), lossless

в форуме Heavy, Power, Progressive (Metal), Размер: 324.21 МБ, Здоровье: 0%

Anonymous

0
0|0

5
0

12 окт 2016, 00:18

Anonymous Перейти к последнему сообщению

В этой теме нет новых непрочитанных сообщений. Скачать торрент Проверен Killswitch Engage - Monsters Of Rock, Brasil, 19.10.2013 - HD 720p [2013, Melodic Metalcore, HDTV 720p]

в форуме Концерты (HD-Video), Размер: 2.8 ГБ, Здоровье: 100%

Anonymous

0
1|0

2
0

23 окт 2016, 10:27

Anonymous Перейти к последнему сообщению



Сейчас этот форум просматривают: нет зарегистрированных пользователей и гости: 3


Вы не можете начинать темы
Вы не можете отвечать на сообщения
Вы не можете редактировать свои сообщения
Вы не можете удалять свои сообщения
Вы не можете добавлять вложения

Перейти:  

!ВНИМАНИЕ!
 Ресурс не предоставляет электронные версии произведений, а занимается лишь коллекционированием и каталогизацией ссылок, присылаемых и публикуемых на форуме нашими читателями. Если вы являетесь правообладателем какого-либо представленного материала и не желаете чтобы ссылка на него находилась в нашем каталоге, свяжитесь с нами и мы незамедлительно удалим её. Файлы для обмена на трекере предоставлены пользователями сайта, и администрация не несёт ответственности за их содержание. Просьба не заливать файлы, защищенные авторскими правами, а также файлы нелегального содержания!
cron