На всех торрентах на трекере установлена скидка на скачивание в размере 100 процентов(а).
 Возможность скачивания торрента НЕ зависит от ограничений при низком ратио, низком аплоаде, требуемом ратио или требуемом аплоаде.


Начать новую тему Ответить на тему
Статистика раздачи
Размер: 4.5 ГБ | Добавлен: 02 май 2014, 20:39 | Скачали: 659
Сидеров: 47  [0 байт/сек]    Личеров: 1  [0 байт/сек]
Пред. тема | След. тема 

Автор
Сообщение

СообщениеДобавлено: 02 май 2014, 20:39 

Вкратце:
Пол Магуайр прежде был крупной фигурой в криминальном мире, однако несколько лет назад отошёл от дел и теперь старается вести жизнь законопослушного гражданина. Однако когда его юная дочь попадает в руки русских мафиози, Полу приходится воспользоваться своими старыми связями и вместе с командой бывших соратников собственноручно спасать заложницу. Впрочем, вскоре выясняется, что причиной похищения стало всего лишь одно недоразумение...


Название: Токарев
Оригинальное название: Tokarev
Год выхода: 2014
Жанр: боевик, триллер, криминал
Режиссер: Пако Кабесас

В ролях: Николас Кейдж, Рэйчел Николс, Макс Райан, Майкл МакГрэйди, Петер Стормаре, Павел Личникофф, Патрис Колс, Макс Фаулер, Обри Пиплз, Джек Фалахи





Выпущено: США, Франция
Продолжительность: 01:38:26
Озвучивание: Любительское (одноголосое) [ХиХиДок]


Формат: MKV
Качество: BDRip 720p [VETO]
Видео: 4835 kb/s, 1280x544
Аудио: Russian: AC3, 192 kb/s (2 ch) / English: DTS, 1510 kb/s (6 ch)
Дополнительно: Сохранены оригинальные чаптеры как на Blu-ray
Субтитры: Russian [Enigma], English

Скачать: Сэмпл

Релиз группы:



Общее
Tokarev.2014.Blu.Ray.720p.CINEMANIA.mkv
Формат : Matroska
Версия формата : Version 4 / Version 2
Размер файла : 4,50 Гбайт
Продолжительность : 1 ч. 38 м.
Общий поток : 6537 Кбит/сек
Название фильма : Release Group CINEMANIA
Дата кодирования : UTC 2014-05-02 04:59:19
Программа кодирования : mkvmerge v6.9.1 ('Blue Panther') 64bit built on Apr 18 2014 18:23:38
Библиотека кодирования : libebml v1.3.0 + libmatroska v1.4.1

Видео
Идентификатор : 1
Формат : AVC
Формат/Информация : Advanced Video Codec
Профиль формата : High@L4.1
Параметр CABAC формата : Да
Параметр ReFrames формата : 5 кадров
Идентификатор кодека : V_MPEG4/ISO/AVC
Продолжительность : 1 ч. 38 м.
Битрейт : 4835 Кбит/сек
Ширина : 1280 пикселей
Высота : 544 пикселя
Соотношение сторон : 2,35:1
Режим частоты кадров : Постоянный
Частота кадров : 23,976 кадра/сек
Цветовое пространство : YUV
Субдискретизация насыщенности : 4:2:0
Битовая глубина : 8 бит
Тип развёртки : Прогрессивная
Бит/(Пиксели*Кадры) : 0.290
Размер потока : 3,24 Гбайт (72%)
Заголовок : Release Group CINEMANIA
Библиотека кодирования : x264 core 142 r2431 ac76440
Настройки программы : cabac=1 / ref=5 / deblock=1:-1:-1 / analyse=0x3:0x133 / me=umh / subme=8 / psy=1 / psy_rd=1.00:0.15 / mixed_ref=1 / me_range=16 / chroma_me=1 / trellis=1 / 8x8dct=1 / cqm=0 / deadzone=21,11 / fast_pskip=0 / chroma_qp_offset=-4 / threads=18 / lookahead_threads=3 / sliced_threads=0 / nr=0 / decimate=1 / interlaced=0 / bluray_compat=0 / constrained_intra=0 / bframes=3 / b_pyramid=2 / b_adapt=2 / b_bias=0 / direct=3 / weightb=1 / open_gop=0 / weightp=2 / keyint=240 / keyint_min=23 / scenecut=40 / intra_refresh=0 / rc_lookahead=50 / rc=2pass / mbtree=1 / bitrate=4835 / ratetol=1.0 / qcomp=0.60 / qpmin=10 / qpmax=69 / qpstep=4 / cplxblur=20.0 / qblur=0.5 / ip_ratio=1.40 / aq=1:1.00
Default : Да
Forced : Нет

Аудио #1
Идентификатор : 2
Формат : AC-3
Формат/Информация : Audio Coding 3
Расширение режима : CM (complete main)
Параметр Endianness формата : Big
Идентификатор кодека : A_AC3
Продолжительность : 1 ч. 38 м.
Вид битрейта : Постоянный
Битрейт : 192 Кбит/сек
Каналы : 2 канала
Расположение каналов : Front: L R
Частота : 44,1 КГц
Битовая глубина : 16 бит
Метод сжатия : С потерями
Размер потока : 135 Мбайт (3%)
Заголовок : хиХиДок
Язык : Russian
Default : Да
Forced : Да

Аудио #2
Идентификатор : 3
Формат : DTS
Формат/Информация : Digital Theater Systems
Режим : 16
Параметр Endianness формата : Big
Идентификатор кодека : A_DTS
Продолжительность : 1 ч. 38 м.
Вид битрейта : Постоянный
Битрейт : 1509 Кбит/сек
Каналы : 6 каналов
Расположение каналов : Front: L C R, Side: L R, LFE
Частота : 48,0 КГц
Битовая глубина : 24 бит
Метод сжатия : С потерями
Размер потока : 1,04 Гбайт (23%)
Язык : English
Default : Нет
Forced : Нет

Текст #1
Идентификатор : 4
Формат : UTF-8
Идентификатор кодека : S_TEXT/UTF8
Идентификатор кодека/Информация : UTF-8 Plain Text
Заголовок : Enigma
Язык : Russian
Default : Нет
Forced : Нет

Текст #2
Идентификатор : 5
Формат : UTF-8
Идентификатор кодека : S_TEXT/UTF8
Идентификатор кодека/Информация : UTF-8 Plain Text
Язык : English
Default : Нет
Forced : Нет

Меню
00:00:00.000 : en:00:00:00.000
00:08:35.598 : en:00:08:35.598
00:16:44.295 : en:00:16:44.295
00:24:59.998 : en:00:24:59.998
00:37:21.448 : en:00:37:21.448
00:42:16.200 : en:00:42:16.200
00:48:20.356 : en:00:48:20.356
00:55:27.032 : en:00:55:27.032
01:07:48.731 : en:01:07:48.731
01:13:20.146 : en:01:13:20.146
01:19:58.711 : en:01:19:58.711
01:27:23.071 : en:01:27:23.071
загрузка...
Правила, инструкции, FAQ!!!
Торрент  Добавлен [02 май 2014, 20:39] Зарегистрируйтесь чтобы скачивать торрент

Статус  
 
Размер  4.5 ГБ
Приватный: Нет (DHT включён)
.torrent скачан  659
Как залить торрент? | Как скачать Torrent? | Как смотреть и слушать онлайн?  


     Отправить личное сообщение
   
Страница 1 из 1
Показать сообщения за:  Поле сортировки  
Начать новую тему Ответить на тему

   Похожие торренты   Автор   Ответы   Просмотры   Последнее сообщение 
В этой теме нет новых непрочитанных сообщений. Токарев / Tokarev (2014) BDRip 1080p | L1

в форуме Новинки кино, Размер: 6.68 ГБ, Здоровье: 100%

Anonymous

0
5|0

132
11

02 май 2014, 20:42

Anonymous Перейти к последнему сообщению

В этой теме нет новых непрочитанных сообщений. Токарев / Tokarev (2014) HDRip | L1

в форуме Новинки кино, Размер: 1.37 ГБ, Здоровье: 100%

Anonymous

0
2|0

128
2

02 май 2014, 20:36

Anonymous Перейти к последнему сообщению

В этой теме нет новых непрочитанных сообщений. Токарев / Tokarev (2014) HDRip-AVC | Субтитры

в форуме Новинки кино, Размер: 1.74 ГБ, Здоровье: 0%

Anonymous

0
0|0

103
1

02 май 2014, 07:32

Anonymous Перейти к последнему сообщению

В этой теме нет новых непрочитанных сообщений. Скачать торрент Проверен Токарев / Tokarev (2014) HDRip [576p] iPad

в форуме Фильмы для iPod, iPhone, iPad, Размер: 1.69 ГБ, Здоровье: 100%

Anonymous

0
6|2

74
0

13 дек 2014, 00:12

Anonymous Перейти к последнему сообщению

В этой теме нет новых непрочитанных сообщений. Скачать торрент Проверен Гнев / Tokarev (2014) BDRip [576p] iPad

в форуме Фильмы для iPod, iPhone, iPad, Размер: 1.74 ГБ, Здоровье: 100%

Гость

0
56|6

69
3

13 сен 2015, 01:23

Гость Перейти к последнему сообщению



Сейчас этот форум просматривают: нет зарегистрированных пользователей и гости: 1


Вы не можете начинать темы
Вы не можете отвечать на сообщения
Вы не можете редактировать свои сообщения
Вы не можете удалять свои сообщения
Вы не можете добавлять вложения

Перейти:  

!ВНИМАНИЕ!
 Ресурс не предоставляет электронные версии произведений, а занимается лишь коллекционированием и каталогизацией ссылок, присылаемых и публикуемых на форуме нашими читателями. Если вы являетесь правообладателем какого-либо представленного материала и не желаете чтобы ссылка на него находилась в нашем каталоге, свяжитесь с нами и мы незамедлительно удалим её. Файлы для обмена на трекере предоставлены пользователями сайта, и администрация не несёт ответственности за их содержание. Просьба не заливать файлы, защищенные авторскими правами, а также файлы нелегального содержания!